Специальный полуночный выпуск / Midnight Special (2016) HDRip | L

 
Автор Сообщение

достали все ®

Пол:

Стаж: 1 год 8 месяцев

Сообщений: 6527



Награды: 12 (Подробнее)

Mega Seeder 3 (Количество: 1) За внесенный вклад в развитие сайта (Количество: 1) Top Releaser 4 (Количество: 1)
Торрент-статистика

Создавать темы 08-Июн-2016 10:35

[Цитировать]

Специальный полуночный выпуск / Midnight Special
Страна: США
Производство: Faliro House Productions, Tri-State Pictures, Warner Bros. Pictures
Год выпуска: 2016
Жанр: фантастика, триллер, драма, приключения
Продолжительность: 01:51:55
Режиссер: Джефф Николс
Автор сценария: Джефф Николс
В ролях: Майкл Шеннон, Джоэл Эдгертон, Кирстен Данст, Джейден Либерер, Адам Драйвер, Билл Кэмп, Скотт Хэйз, Сэм Шепард
Описание: Отец и сын сбегают, после того, как отец узнает, что его ребенок обладает сверхъестественными способностями...

Перевод: Любительский (многоголосый, закадровый) | Paradox & Omskbird records
Субтитры: нет-Качество: HDRip
Формат: АVI
Видео кодек: XviD
Аудио кодек: АС3
Видео: 720x304 (2.35:1), 23.976 fps, XviD ~1 183 kbps avg
Аудио: 48.0 kHz, AC3 Dolby Digital, 3/2 (L,C,R,l,r) + LFE ch, ~448.00 kbps
Дата премьеры (мир): 12 февраля 2016

Media Info

General
Format : AVI
Format/Info : Audio Video Interleave
Overall bit rate : 1 642 Kbps
Movie name : Cpec.p0LuH04Hyj.BypuCkl.2016.P.HDRip.14OOMB
Writing application : VirtualDubMod 1.5.10.3 | (build 2550/release)
Writing library : VirtualDubMod build 2550/release
Video
ID : 0
Format : MPEG-4 Visual
Format profile : Advanced Simple@L5
Format settings, BVOP : 2
Format settings, QPel : No
Format settings, GMC : No warppoints
Format settings, Matrix : Custom
Codec ID : XVID
Codec ID/Hint : XviD
Bit rate : 1 183 Kbps
Width : 720 pixels
Height : 304 pixels
Display aspect ratio : 2.35:1
Frame rate : 23.976 fps
Color space : YUV
Chroma subsampling : 4:2:0
Bit depth : 8 bits
Scan type : Progressive
Compression mode : Lossy
Bits/(Pixel*Frame) : 0.225
Stream size : 9.75 MiB (72%)
Writing library : XviD 1.2.1 (UTC 2008-12-04)
Audio
ID : 1
Format : AC-3
Format/Info : Audio Coding 3
Mode extension : CM (complete main)
Format settings, Endianness : Big
Codec ID : 2000
Bit rate mode : Constant
Bit rate : 448 Kbps
Channel(s) : 6 channels
Channel positions : Front: L C R, Side: L R, LFE
Sampling rate : 48.0 KHz
Compression mode : Lossy
Stream size : 3.69 MiB (27%)
Alignment : Split accross interleaves
Interleave, duration : 42 ms (1.01 video frame)
Interleave, preload duration : 500 ms

Скриншоты

[Профиль] [ЛС]
Кто просматривает тему:

Форум Тема Автор Размер
Разное "Специалист" | Настройка ПК с Windows 8/7. Уровень 1. Базовые возможности​ (2013) [PCRec] sergej644 515 MB
Компьютерная литература (Программирование) Blattner P. / Блаттнер П. - Using Microsoft Office Excel 2003. Special Edition / Использование Microsoft Office Excel 2003. Специальное издание [2005, DjVu, RUS] TorrentFilm 31 MB
Action Devil May Cry 3: Dante\'s Awakening. Special Edition / Devil May Cry 3: Dante\'s Awakening. Специальное издание [L] [RUS / ENG] (2006) TorrentFilm 3.88 GB
Документальные HD В кольце. Специальный корреспондент. Эфир от 28/11/2014 (Александра Бузаладзе) [2014, Документалистика, телепередача, HDTV 1080i] TorrentFilm 5.57 GB
Иностранные языки Г.Г. Губина - Компьютерный английский. Часть II . Английский для специалистов (2013) PDF достали все 1 MB
Фильмы 2011 года Гайвер 2: Темный герой / Guyver: Dark Hero (Стив Ванг / Steve Wang) [1994, США, Фантастика, боевик, DVDRip] (Специальное полное издание / Special Extended Version) 5 x AVO (Визгунов + Гаври... Russian Mafia 1.78 GB
Компьютерная литература (Программирование) Для профессионалов - Richter J. / Рихтер Дж. - Programming Applications for Microsoft Windows / Windows. Создание эффективных Win32-приложений с учётом специфики 64-разрядной версии Windows... TorrentFilm 98 MB
Зарубежные сериалы Дуракам Везет - Специальные выпуски / Only Fools and Horses Special (1981 - 1992) DVDRip от Brazzass Белочка 8.92 GB
Показать сообщения:    

Текущее время: Сегодня 22:11

Часовой пояс: GMT



Вы не можете начинать темы
Вы не можете отвечать на сообщения
Вы не можете редактировать свои сообщения
Вы не можете удалять свои сообщения
Вы не можете голосовать в опросах
Вы не можете прикреплять файлы к сообщениям
Вы не можете скачивать файлы