Специальные корреспонденты / Special Correspondents (2016) WEB-DL 720p | L

 
Автор Сообщение

BOSS ®

Пол:

Стаж: 2 года 1 месяц

Сообщений: 3735

Откуда: ODESSA



Награды: 20 (Подробнее)

Mega Seeder 1 (Количество: 1) Mega Releaser 2 (Количество: 1) За внесенный вклад в развитие сайта (Количество: 1)
Торрент-статистика

Создавать темы 19-Май-2016 04:40

[Цитировать]

Специальные корреспонденты / Special Correspondents
Страна: США Великобритания Канада
Производство: Unanimous Entertainment, Stage 6 Films, Bron Studios
Год выпуска: 2016
Жанр: комедия
Продолжительность: 01:41:22
Режиссер: Рики Джервэйс
Автор сценария: Рики Джервэйс
Продюсеры: Крис Коэн, Аарон Л. Гилберт, Мануэль Мунц
В ролях: Эрик Бана, Рики Джервэйс, Вера Фармига, Келли Макдоналд, Америка Феррера, Рауль Кастильо, Бенджамин Брэтт, Кевин Поллак
Описание: Комедия о радиожурналисте и его техническом помощнике, которые вляпываются в историю со своим же мнимым похищением во время волнений в Южной Америке. Пока их ищут по всему континенту, они отсиживаются в Нью-Йорке и придумывают, как выйти из этой ситуации сухими...

Перевод: Любительский (многоголосый, закадровый)
Субтитры: нет-Качество: WEB-DL 720p
Формат: МКV
Видео кодек: AVC
Аудио кодек: АС3
Видео: 1280x692 (1.85:1), 24.000 fps, MPEG-4 AVC ~4 178 kbps avg, 0.197 bit/pixel
Аудио: 48.0 kHz, AC3 Dolby Digital, 2/0 (L,R) ch, ~384 kbps
Дата премьеры (мир): 22 апреля 2016
ПРИМЕЧАНИЕ: ПРИСУТСТВУЕТ РЕКЛАМА!

Media Info

General
Unique ID : 174412537799723662465396939583426837019 (0x8336A20735978346A6DE23017CD6BA1B)
Format : Matroska
Format version : Version 4 / Version 2
Overall bit rate mode : Constant
Overall bit rate : 4 655 Kbps
Movie name : MoreFilms
Encoded date : UTC 2016-05-18 18:23:30
Writing application : mkvmerge v8.8.0 ('Wind at my back') 64bit
Writing library : libebml v1.3.3 + libmatroska v1.4.4
DURATION : 00:01:00.960000000
NUMBER_OF_FRAMES : 1905
NUMBER_OF_BYTES : 2926080
_STATISTICS_WRITING_APP : mkvmerge v8.8.0 ('Wind at my back') 64bit
_STATISTICS_WRITING_DATE_UTC : 2016-05-18 18:23:30
_STATISTICS_TAGS : BPS DURATION NUMBER_OF_FRAMES NUMBER_OF_BYTES
Video
ID : 1
Format : AVC
Format/Info : Advanced Video Codec
Format profile : High@L4.1
Format settings, CABAC : Yes
Format settings, ReFrames : 9 frames
Codec ID : V_MPEG4/ISO/AVC
Bit rate mode : Constant
Bit rate : 4 178 Kbps
Nominal bit rate : 4 500 Kbps
Width : 1 280 pixels
Height : 692 pixels
Display aspect ratio : 1.85:1
Frame rate mode : Constant
Frame rate : 24.000 fps
Standard : Component
Color space : YUV
Chroma subsampling : 4:2:0
Bit depth : 8 bits
Scan type : Progressive
Bits/(Pixel*Frame) : 0.197
Stream size : 30.4 MiB (90%)
Default : Yes
Forced : No
Color range : Limited
Color primaries : BT.709
Transfer characteristics : BT.709
Matrix coefficients : BT.709
Audio
ID : 2
Format : AC-3
Format/Info : Audio Coding 3
Mode extension : CM (complete main)
Format settings, Endianness : Big
Codec ID : A_AC3
Bit rate mode : Constant
Bit rate : 384 Kbps
Channel(s) : 2 channels
Channel positions : Front: L R
Sampling rate : 48.0 KHz
Compression mode : Lossy
Delay relative to video : 21ms
Stream size : 2.79 MiB (8%)
Default : Yes
Forced : No

Скриншоты

[Профиль] [ЛС]
Кто просматривает тему:

Форум Тема Автор Размер
Разное "Специалист" | Настройка ПК с Windows 8/7. Уровень 1. Базовые возможности​ (2013) [PCRec] sergej644 515 MB
Компьютерная литература (Программирование) Blattner P. / Блаттнер П. - Using Microsoft Office Excel 2003. Special Edition / Использование Microsoft Office Excel 2003. Специальное издание [2005, DjVu, RUS] TorrentFilm 31 MB
Action Devil May Cry 3: Dante\'s Awakening. Special Edition / Devil May Cry 3: Dante\'s Awakening. Специальное издание [L] [RUS / ENG] (2006) TorrentFilm 3.88 GB
Документальные HD В кольце. Специальный корреспондент. Эфир от 28/11/2014 (Александра Бузаладзе) [2014, Документалистика, телепередача, HDTV 1080i] TorrentFilm 5.57 GB
Иностранные языки Г.Г. Губина - Компьютерный английский. Часть II . Английский для специалистов (2013) PDF достали все 1 MB
Фильмы 2011 года Гайвер 2: Темный герой / Guyver: Dark Hero (Стив Ванг / Steve Wang) [1994, США, Фантастика, боевик, DVDRip] (Специальное полное издание / Special Extended Version) 5 x AVO (Визгунов + Гаври... Russian Mafia 1.78 GB
Компьютерная литература (Программирование) Для профессионалов - Richter J. / Рихтер Дж. - Programming Applications for Microsoft Windows / Windows. Создание эффективных Win32-приложений с учётом специфики 64-разрядной версии Windows... TorrentFilm 98 MB
Зарубежные сериалы Дуракам Везет - Специальные выпуски / Only Fools and Horses Special (1981 - 1992) DVDRip от Brazzass Белочка 8.92 GB
Показать сообщения:    

Текущее время: Сегодня 22:26

Часовой пояс: GMT



Вы не можете начинать темы
Вы не можете отвечать на сообщения
Вы не можете редактировать свои сообщения
Вы не можете удалять свои сообщения
Вы не можете голосовать в опросах
Вы не можете прикреплять файлы к сообщениям
Вы не можете скачивать файлы