Специальные корреспонденты / Special Correspondents (2016) WEB-DLRip | L

 
Автор Сообщение

BOSS ®

Пол:

Стаж: 2 года 1 месяц

Сообщений: 3712

Откуда: ODESSA



Награды: 20 (Подробнее)

Mega Seeder 5 (Количество: 1) Top Seeder 2 (Количество: 1) Top Keeper 3 (Количество: 1)
Торрент-статистика

Создавать темы 19-Май-2016 04:37

[Цитировать]

Специальные корреспонденты / Special Correspondents
Страна: США Великобритания Канада
Производство: Unanimous Entertainment, Stage 6 Films, Bron Studios
Год выпуска: 2016
Жанр: комедия
Продолжительность: 01:41:22
Режиссер: Рики Джервэйс
Автор сценария: Рики Джервэйс
Продюсеры: Крис Коэн, Аарон Л. Гилберт, Мануэль Мунц
В ролях: Эрик Бана, Рики Джервэйс, Вера Фармига, Келли Макдоналд, Америка Феррера, Рауль Кастильо, Бенджамин Брэтт, Кевин Поллак
Описание: Комедия о радиожурналисте и его техническом помощнике, которые вляпываются в историю со своим же мнимым похищением во время волнений в Южной Америке. Пока их ищут по всему континенту, они отсиживаются в Нью-Йорке и придумывают, как выйти из этой ситуации сухими...

Перевод: Любительский (многоголосый, закадровый)
Субтитры: нет-Качество: WEB-DLRip
Формат: АVI
Видео кодек: XviD
Аудио кодек: АС3
Видео: 720x384 (1.85:1), 24.000 fps, XviD ~1 302 kbps avg, 0.196 bit/pixel
Аудио: 48.0 kHz, AC3 Dolby Digital, 2/0 (L,R) ch, ~384 kbps
Дата премьеры (мир): 22 апреля 2016
ПРИМЕЧАНИЕ: ПРИСУТСТВУЕТ РЕКЛАМА!

Media Info

General
Format : AVI
Format/Info : Audio Video Interleave
Overall bit rate : 1 696 Kbps
Movie name : Specialnye.korrespondenty.2016.L.WEB-DLRip.1400MB
Writing application : VirtualDubMod 1.5.10.3 | (build 2550/release)
Writing library : VirtualDubMod build 2550/release
Copyright : MoreFilms
Video
ID : 0
Format : MPEG-4 Visual
Format profile : Advanced Simple@L5
Format settings, BVOP : 2
Format settings, QPel : No
Format settings, GMC : No warppoints
Format settings, Matrix : Custom
Codec ID : XVID
Codec ID/Hint : XviD
Bit rate : 1 302 Kbps
Width : 720 pixels
Height : 384 pixels
Display aspect ratio : 1.85:1
Frame rate : 24.000 fps
Color space : YUV
Chroma subsampling : 4:2:0
Bit depth : 8 bits
Scan type : Progressive
Compression mode : Lossy
Bits/(Pixel*Frame) : 0.196
Stream size : 12.5 MiB (77%)
Writing library : XviD 1.2.1 (UTC 2008-12-04)
Audio
ID : 1
Format : AC-3
Format/Info : Audio Coding 3
Mode extension : CM (complete main)
Format settings, Endianness : Big
Codec ID : 2000
Bit rate mode : Constant
Bit rate : 384 Kbps
Channel(s) : 2 channels
Channel positions : Front: L R
Sampling rate : 48.0 KHz
Compression mode : Lossy
Delay relative to video : 18ms
Stream size : 3.69 MiB (23%)
Alignment : Split accross interleaves
Interleave, duration : 42 ms (1.01 video frame)
Interleave, preload duration : 500 ms

Скриншоты

[Профиль] [ЛС]
Кто просматривает тему:

Форум Тема Автор Размер
Разное "Специалист" | Настройка ПК с Windows 8/7. Уровень 1. Базовые возможности​ (2013) [PCRec] sergej644 515 MB
Компьютерная литература (Программирование) Blattner P. / Блаттнер П. - Using Microsoft Office Excel 2003. Special Edition / Использование Microsoft Office Excel 2003. Специальное издание [2005, DjVu, RUS] TorrentFilm 31 MB
Action Devil May Cry 3: Dante\'s Awakening. Special Edition / Devil May Cry 3: Dante\'s Awakening. Специальное издание [L] [RUS / ENG] (2006) TorrentFilm 3.88 GB
Документальные HD В кольце. Специальный корреспондент. Эфир от 28/11/2014 (Александра Бузаладзе) [2014, Документалистика, телепередача, HDTV 1080i] TorrentFilm 5.57 GB
Иностранные языки Г.Г. Губина - Компьютерный английский. Часть II . Английский для специалистов (2013) PDF достали все 1 MB
Фильмы 2011 года Гайвер 2: Темный герой / Guyver: Dark Hero (Стив Ванг / Steve Wang) [1994, США, Фантастика, боевик, DVDRip] (Специальное полное издание / Special Extended Version) 5 x AVO (Визгунов + Гаври... Russian Mafia 1.78 GB
Компьютерная литература (Программирование) Для профессионалов - Richter J. / Рихтер Дж. - Programming Applications for Microsoft Windows / Windows. Создание эффективных Win32-приложений с учётом специфики 64-разрядной версии Windows... TorrentFilm 98 MB
Зарубежные сериалы Дуракам Везет - Специальные выпуски / Only Fools and Horses Special (1981 - 1992) DVDRip от Brazzass Белочка 8.92 GB
Показать сообщения:    

Текущее время: Сегодня 00:40

Часовой пояс: GMT



Вы не можете начинать темы
Вы не можете отвечать на сообщения
Вы не можете редактировать свои сообщения
Вы не можете удалять свои сообщения
Вы не можете голосовать в опросах
Вы не можете прикреплять файлы к сообщениям
Вы не можете скачивать файлы