Специалист по выживанию / The Survivalist (2015) BDRip 1080p | L2, L1

 
Автор Сообщение

Russian Mafia ®

Пол:

Стаж: 1 год 8 месяцев

Сообщений: 4257



Награды: 10 (Подробнее)

Mega Seeder 5 (Количество: 1) Mega Seeder 4 (Количество: 1) Top Releaser 4 (Количество: 1)
Торрент-статистика

Создавать темы 06-Май-2016 18:42

[Цитировать]

Название: Специалист по выживанию
Оригинальное название: The Survivalist
Год выхода: 2015
Страна: Великобритания
Студия: Fyzz Facility Film One, The, thefyzz
Продолжительность: 01:43:32
Жанр: фантастика, триллер, драма, ...
Режиссер: Стивен Финглтон
В ролях: Миа Гот, Мартин МакКанн, Эндрю Симпсон, Дуглас Расселл, Киери Ноддингс, Олуэн Фуэр, Райан МакПарланд, Киаран Флинн, Hussina Raja, Dexter Louca Godfrey, ...
Перевод:
- Любительский (двухголосый, закадровый) PAROVOZ production studio
- Любительский (одноголосый, закадровый) Замез Вячеслав
О фильме: Ближайшее будущее. После того как перенаселение истощило мировые ресурсы, количество жителей Земли существенно уменьшилось, а от индустриальных запасов еды, как и от цивилизованного существования, не осталось и следа. Выживальщик — это мужчина, который ищет проживание в лесах Северной Ирландии. Он явно демонстрирует, что ему никто не нужен и он никого не хочет видеть в своей жизни. Но когда появляются две женщины, мать и дочь, сексуальное влечение берет верх. И в результате образуется странная компания из трех человек…

Кодек: x264
Качество: BDRip 1080p
Видео: 1920x804, 12000 kbps, 24 fps
Аудио #1: AC-3, 6 ch, 448 kbps (Rus) - DVOL Parovoz Production
Аудио #2: AC-3, 6 ch, 384 kbps (Rus) - VO Замез Вячеслав (zamez)
Аудио #3: DTS, 6 ch, 768 kbps (Eng)
Субтитры: Английские
Спасибо за исходник

MediaInfo

x264 [info]: frame I:774 Avg QP:15.42 size:200705
x264 [info]: frame P:26190 Avg QP:17.94 size:107118
x264 [info]: frame B:122125 Avg QP:19.35 size: 52044
x264 [info]: consecutive B-frames: 1.5% 2.1% 4.7% 9.3% 13.7% 13.8% 12.9% 21.1% 10.5% 3.0% 1.8% 2.1% 3.5%
Общее
Уникальный идентификатор : 237359946369988624976111097732443704862 (0xB291DCE28198FD0DA3C2A763A4E88E1E)
Полное имя : C:TorrentСпециалист по выживанию (The Survivalist) 2015 BDRip 1080p.mkv
Формат : Matroska
Версия формата : Version 2
Размер файла : 9,84 Гбайт
Продолжительность : 1 ч. 43 м.
Общий поток : 13,6 Мбит/сек
Дата кодирования : UTC 2016-05-05 19:56:29
Программа кодирования : mkvmerge v4.0.0 ('The Stars were mine') сборка от Jun 6 2010 16:18:42
Библиотека кодирования : libebml v1.0.0 + libmatroska v1.0.0
Видео
Идентификатор : 1
Формат : AVC
Формат/Информация : Advanced Video Codec
Профиль формата : High@L4.1
Параметр CABAC формата : Да
Параметр ReFrames формата : 5 кадров
Идентификатор кодека : V_MPEG4/ISO/AVC
Продолжительность : 1 ч. 43 м.
Битрейт : 12,0 Мбит/сек
Ширина : 1920 пикселей
Высота : 804 пикселя
Соотношение сторон : 2,40:1
Режим частоты кадров : Постоянный
Частота кадров : 24,000 кадра/сек
Цветовое пространство : YUV
Субдискретизация насыщенности : 4:2:0
Битовая глубина : 8 бит
Тип развёртки : Прогрессивная
Бит/(Пиксели*Кадры) : 0.324
Размер потока : 8,48 Гбайт (86%)
Библиотека кодирования : x264 core 146 r2538 121396c
Настройки программы : cabac=1 / ref=5 / deblock=1:-3:-3 / analyse=0x3:0x133 / me=umh / subme=11 / psy=1 / psy_rd=1.10:0.16 / mixed_ref=1 / me_range=32 / chroma_me=1 / trellis=2 / 8x8dct=1 / cqm=0 / deadzone=21,11 / fast_pskip=0 / chroma_qp_offset=-3 / threads=12 / lookahead_threads=2 / sliced_threads=0 / nr=0 / decimate=0 / interlaced=0 / bluray_compat=0 / constrained_intra=0 / bframes=12 / b_pyramid=2 / b_adapt=2 / b_bias=0 / direct=3 / weightb=1 / open_gop=0 / weightp=2 / keyint=240 / keyint_min=24 / scenecut=40 / intra_refresh=0 / rc_lookahead=60 / rc=2pass / mbtree=0 / bitrate=12000 / ratetol=1.0 / qcomp=0.60 / qpmin=0 / qpmax=69 / qpstep=4 / cplxblur=20.0 / qblur=0.5 / vbv_maxrate=50000 / vbv_bufsize=62500 / nal_hrd=none / filler=0 / ip_ratio=1.40 / pb_ratio=1.30 / aq=1:0.90
Язык : English
Default : Нет
Forced : Нет
Аудио #1
Идентификатор : 2
Формат : AC-3
Формат/Информация : Audio Coding 3
Расширение режима : CM (complete main)
Параметр Endianness формата : Big
Идентификатор кодека : A_AC3
Продолжительность : 1 ч. 43 м.
Вид битрейта : Постоянный
Битрейт : 448 Кбит/сек
Каналы : 6 каналов
Расположение каналов : Front: L C R, Side: L R, LFE
Частота : 48,0 КГц
Метод сжатия : С потерями
Размер потока : 332 Мбайт (3%)
Заголовок : DVOL Parovoz Production
Язык : Russian
Default : Нет
Forced : Нет
Аудио #2
Идентификатор : 3
Формат : AC-3
Формат/Информация : Audio Coding 3
Расширение режима : CM (complete main)
Параметр Endianness формата : Big
Идентификатор кодека : A_AC3
Продолжительность : 1 ч. 43 м.
Вид битрейта : Постоянный
Битрейт : 384 Кбит/сек
Каналы : 6 каналов
Расположение каналов : Front: L C R, Side: L R, LFE
Частота : 48,0 КГц
Метод сжатия : С потерями
Размер потока : 284 Мбайт (3%)
Заголовок : VO Замез Вячеслав (zamez)
Язык : Russian
Default : Нет
Forced : Нет
Аудио #3
Идентификатор : 4
Формат : DTS
Формат/Информация : Digital Theater Systems
Режим : 16
Параметр Endianness формата : Big
Идентификатор кодека : A_DTS
Продолжительность : 1 ч. 43 м.
Вид битрейта : Постоянный
Битрейт : 768 Кбит/сек
Каналы : 6 каналов
Расположение каналов : Front: L C R, Side: L R, LFE
Частота : 48,0 КГц
Битовая глубина : 24 бит
Метод сжатия : С потерями
Размер потока : 569 Мбайт (6%)
Язык : English
Default : Нет
Forced : Нет
Текст
Идентификатор : 5
Формат : UTF-8
Идентификатор кодека : S_TEXT/UTF8
Идентификатор кодека/Информация : UTF-8 Plain Text
Язык : English
Default : Нет
Forced : Нет

[Профиль] [ЛС]
Кто просматривает тему:

Форум Тема Автор Размер
Разное "Специалист" | Настройка ПК с Windows 8/7. Уровень 1. Базовые возможности​ (2013) [PCRec] sergej644 515 MB
Компьютерная литература (Программирование) Blattner P. / Блаттнер П. - Using Microsoft Office Excel 2003. Special Edition / Использование Microsoft Office Excel 2003. Специальное издание [2005, DjVu, RUS] TorrentFilm 31 MB
Action Devil May Cry 3: Dante\'s Awakening. Special Edition / Devil May Cry 3: Dante\'s Awakening. Специальное издание [L] [RUS / ENG] (2006) TorrentFilm 3.88 GB
Документальные HD В кольце. Специальный корреспондент. Эфир от 28/11/2014 (Александра Бузаладзе) [2014, Документалистика, телепередача, HDTV 1080i] TorrentFilm 5.57 GB
Иностранные языки Г.Г. Губина - Компьютерный английский. Часть II . Английский для специалистов (2013) PDF достали все 1 MB
Фильмы 2011 года Гайвер 2: Темный герой / Guyver: Dark Hero (Стив Ванг / Steve Wang) [1994, США, Фантастика, боевик, DVDRip] (Специальное полное издание / Special Extended Version) 5 x AVO (Визгунов + Гаври... Russian Mafia 1.78 GB
Компьютерная литература (Программирование) Для профессионалов - Richter J. / Рихтер Дж. - Programming Applications for Microsoft Windows / Windows. Создание эффективных Win32-приложений с учётом специфики 64-разрядной версии Windows... TorrentFilm 98 MB
Зарубежные сериалы Дуракам Везет - Специальные выпуски / Only Fools and Horses Special (1981 - 1992) DVDRip от Brazzass Белочка 8.92 GB
Показать сообщения:    

Текущее время: Сегодня 09:09

Часовой пояс: GMT



Вы не можете начинать темы
Вы не можете отвечать на сообщения
Вы не можете редактировать свои сообщения
Вы не можете удалять свои сообщения
Вы не можете голосовать в опросах
Вы не можете прикреплять файлы к сообщениям
Вы не можете скачивать файлы