"Специалист" | Настройка ПК с Windows 8/7. Уровень 1. Базовые возможности​ (2013) [PCRec]

 
Автор Сообщение

sergej644 ®

Пол:

Стаж: 4 года 11 месяцев

Сообщений: 6038

Откуда: Soviet Union



Награды: Нет

Торрент-статистика

Создавать темы 24-Окт-2014 06:53

[Цитировать]

-"Специалист" | Настройка ПК с Windows 8/7. Уровень 1. Базовые возможности​ (2013) [PCRec]- Автор (режиссер): "Специалист"
Жанр: Обучающий курс
Преподаватель: Алексей Губарь
Продолжительность: 9:49:04
Качество видео: PCRec
Видеокодек: WMV
Битрейт видео: ~15fps 54kbps
Размер кадра: 1300x816
Аудиокодек: WMA
Битрейт аудио: 44100Hz mono 48kbps
Описание:
Вы – счастливый обладатель компьютера, планшета или ноутбука с операционной системой Windows 8 или Windows 7. Вы используете его для решения различных задач на работе и дома. Но вдруг Вы стали замечать, что компьютер работает медленнее, чем раньше, а, иногда и просто зависает. Еще немного, и система не запустится вообще. В чем проблема и как со всем этим справиться?
Вы узнаете это на занятиях курса «Windows 8 и Windows 7. Обеспечение работоспособности, поддержка и восстановление»! Курс пригодится пользователям с различным уровнем подготовки – достаточно иметь минимальные навыки по работе с компьютером.
Вам больше не придется приглашать сомнительных специалистов и платить за некачественную и бесполезную работу. Теперь Вы сами сможете установить, настроить, а при необходимости и восстановить работоспособность Windows!

Дополнительная информация:

По окончании курса Вы будете уметь:
Переустанавливать поврежденную операционную систему на компьютерах, ноутбуках и планшетах.
Обеспечивать работоспособность внешних устройств (Wi-Fi, принтера и т.д.).
Устанавливать и удалять необходимые для работы программы.
Бороться с зависанием различных программ.
Очищать диски от ненужных файлов.
Восстанавливать систему с помощью контрольных точек.
Запускать систему в безопасном режиме.
Использовать механизм восстановления и сброса системы.
Программа курса Настройка ПК с Windows 8/7. Уровень 1. Базовые возможности

Модуль 1. Восстановление повреждённой операционной системы на компьютерах, ноутбуках и планшетах.
Обзор вариантов переустановки системы.
Запуск системы с установочного DVD-диска или Flash-накопителя.
Восстановление компьютера и переустановка Windows.
Модуль 2. Настройка системы.
Начальный экран Windows 8.Плитки.
Рабочий стол Windows 8 иWindows 7.
Настройка рабочего стола и пользовательского интерфейса
Модуль 3. Установка и настройка устройств компьютера.
Установка нового оборудования.
Диспетчер устройств. Обновление, откат, удаление драйверов.
Модуль 4. Подключение компьютера к локальной сети. Интеграция с Internet.
Центр управления сетями и общим доступом.
Сетевое обнаружение и категории сетей, просмотр сетевых компьютеров.
Подключение к беспроводной Wi-Fi сети.
Модуль 5. Установка и удаление прикладных программ.
Приложения для Windows 8.
Установка приложений из Магазина Windows.
Удаление приложений для Windows 8.
Приложения для рабочего стола – установка и удаление на примере MS Office.
Отключение и подключение компонентов Windows.
Принудительное завершение зависших программ – Диспетчер задач.
Модуль 6. Профилактика, оптимизация и обслуживание системы.
Создание логического диска (тома).
Проверка диска на наличие ошибок.
Очистка диска для удаления ненужных файлов.
Программа Восстановление системы.
Создание точки восстановления системы.
Восстановление работоспособного состояния.
Загрузка Windows в безопасном режиме.

MI

Общее
Полное имя : D:\Торренты\НастройкаПКсWindows8-7_Уровень1\01_1.wmv
Формат : Windows Media
Размер файла : 118 Мбайт
Продолжительность : 2 ч. 23 м.
Режим общего битрейта : Переменный
Общий поток : 115 Кбит/сек
Максимальный общий битрейт : 464 Кбит/сек
Название фильма : 01
Дата кодирования : UTC 2013-08-25 17:36:27.171
Видео
Идентификатор : 2
Формат : VC-1
Профиль формата : MP@HL
Идентификатор кодека : WMV3
Идентификатор кодека/Информация : Windows Media Video 9
Идентификатор кодека/Подсказка : WMV3
Описание кодека : Windows Media Video 9
Продолжительность : 2 ч. 23 м.
Вид битрейта : Переменный
Битрейт : 54,3 Кбит/сек
Ширина : 1300 пикселей
Высота : 816 пикселей
Соотношение сторон : 1,593
Частота кадров : 15,000 кадров/сек
Битовая глубина : 8 бит
Тип развёртки : Прогрессивная
Метод сжатия : С потерями
Бит/(Пиксели*Кадры) : 0.003
Размер потока : 55,5 Мбайт (47%)
Язык : English (US)
Аудио
Идентификатор : 1
Формат : WMA
Версия формата : Version 2
Идентификатор кодека : 161
Идентификатор кодека/Информация : Windows Media Audio
Описание кодека : Windows Media Audio 9.2 - 48 kbps, 44 kHz, mono (A/V) 1-pass CBR
Продолжительность : 2 ч. 23 м.
Вид битрейта : Постоянный
Битрейт : 48,0 Кбит/сек
Каналы : 1 канал
Частота : 44,1 КГц
Битовая глубина : 16 бит
Размер потока : 49,1 Мбайт (42%)
Язык : English (US)
Скриншоты:

Время раздачи: 24/7 (круглосуточно)
[Профиль] [ЛС]
Показать сообщения:    

Текущее время: Сегодня 14:34

Часовой пояс: GMT



Вы не можете начинать темы
Вы не можете отвечать на сообщения
Вы не можете редактировать свои сообщения
Вы не можете удалять свои сообщения
Вы не можете голосовать в опросах
Вы не можете прикреплять файлы к сообщениям
Вы не можете скачивать файлы