Спецагент Арчер / Archer [S07] (2016) WEB-DL 1080p | Кубик в Кубе & Бяко Рекордс

 
Автор Сообщение

Russian Mafia ®

Пол:

Стаж: 1 год 8 месяцев

Сообщений: 4247



Награды: 10 (Подробнее)

Top Releaser 2 (Количество: 1) Mega Seeder 5 (Количество: 1) Top Releaser 4 (Количество: 1)
Торрент-статистика

Создавать темы 25-Авг-2016 08:56

[Цитировать]

-Спецагент Арчер / Archer- Год выпуска: 2016
Страна: США
Жанр: комедия, детектив
Продолжительность: ~00:22:00
Перевод: Профессиональный (многоголосый закадровый) | Кубик в Кубе & Бяко Рекордс
Режиссёры:
Адам Рид, Брайан Фордни
Роли озвучивали:
Х. Джон Бенжамин (Стерлинг Мэлори Арчер), Аиша Тайлер (Лана Кейн), Крис Парнелл (Сирил Фиггис), Джессика Уолтер (Мэлори Арчер), Эмбер Нэш (Пэм), Джуди Грир (Шерил Тант), Адам Рид (Рей Жиллет), Лаки Йэтс (Кригер), Дэйв Уиллис (Барри Диллон), Мэри МаДональд-Льюис (Вероника Дин), Пэттон Освальт (Алан Шапиро)
Описание:
В международном шпионском агенстве ISIS любой мировой кризис — лишь предлог для высококлассных секретных агентов посоревноваться между собой в обмане и предательстве. Главным героем мультсериала является спецагент Стерлинг Арчер, известный также под кодовым именем «Герцогиня». На службе Арчеру приходится мириться со своей эксцентричной мамашей/начальницей — Мэлори, бывшей подружкой Ланой, озабоченной секретаршей Шерил и другими «интересными личностями»
Семпл
Качество: WEB-DL 1080p
Формат: MKV
Видео: 1920x1080 (16:9), H.264, ~4 800 Kbps, 23.976 fps
Аудио 1: AC3, 48.0 KHz, 6 ch, 384 kbps RUS
Аудио 2: AC3, 48.0 KHz, 6 ch, 384 kbps ENG
Субтитры: русские, английские

Релиз

Озвучка - Руслан Габидуллин, Константин Погодаев, Ольга Кравцова, Анна Тух (Кубик в кубе & Бяко Рекордс), перевод - Юрий Башенкер.-Субтитры - aircatmat, Eldjernon, karika, Muerte_Dolorosa, Asmund, nastyafisa1411 (Нотабеноид), синхронизация - Yipikaye112.

Подробные технические данные

Общее
Уникальный идентификатор : 180468832034155400217888244182335503743 (0x87C508633E06209EB980ABA4BAAE3D7F)
Полное имя : D:ЗагрузкиtorrentArcher.S07.WEB-DL.1080pArcher.S01E02.WEB-DL.1080p.mkv
Формат : Matroska
Версия формата : Version 4 / Version 2
Размер файла : 917 Мбайт
Продолжительность : 22 м.
Общий поток : 5711 Кбит/сек
Дата кодирования : UTC 2016-05-23 12:36:12
Программа кодирования : mkvmerge v6.7.0 ('Back to the Ground') 64bit built on Jan 8 2014 15:10:52
Библиотека кодирования : libebml v1.3.0 + libmatroska v1.4.1
Видео
Идентификатор : 1
Формат : AVC
Формат/Информация : Advanced Video Codec
Профиль формата : High@L4
Параметр CABAC формата : Да
Параметр ReFrames формата : 4 кадра
Идентификатор кодека : V_MPEG4/ISO/AVC
Продолжительность : 22 м.
Битрейт : 4829 Кбит/сек
Ширина : 1920 пикселей
Высота : 1080 пикселей
Соотношение сторон : 16:9
Режим частоты кадров : Постоянный
Частота кадров : 23,976 кадра/сек
Цветовое пространство : YUV
Субдискретизация насыщенности : 4:2:0
Битовая глубина : 8 бит
Тип развёртки : Прогрессивная
Бит/(Пиксели*Кадры) : 0.097
Размер потока : 775 Мбайт (85%)
Язык : English
Default : Да
Forced : Нет
Цветовой диапазон : Limited
Основные цвета : BT.709
Характеристики трансфера : BT.709
Коэффициенты матрицы : BT.709
Аудио #1
Идентификатор : 2
Формат : AC-3
Формат/Информация : Audio Coding 3
Расширение режима : CM (complete main)
Параметр Endianness формата : Big
Идентификатор кодека : A_AC3
Продолжительность : 22 м.
Вид битрейта : Постоянный
Битрейт : 384 Кбит/сек
Каналы : 6 каналов
Расположение каналов : Front: L C R, Side: L R, LFE
Частота : 48,0 КГц
Частота кадров : 31,250 кадров/сек (1536 spf)
Метод сжатия : С потерями
Размер потока : 61,6 Мбайт (7%)
Язык : Russian
Default : Да
Forced : Нет
Аудио #2
Идентификатор : 3
Формат : AC-3
Формат/Информация : Audio Coding 3
Расширение режима : CM (complete main)
Параметр Endianness формата : Big
Идентификатор кодека : A_AC3
Продолжительность : 22 м.
Вид битрейта : Постоянный
Битрейт : 384 Кбит/сек
Каналы : 6 каналов
Расположение каналов : Front: L C R, Side: L R, LFE
Частота : 48,0 КГц
Частота кадров : 31,250 кадров/сек (1536 spf)
Метод сжатия : С потерями
Размер потока : 61,6 Мбайт (7%)
Язык : English
Default : Нет
Forced : Нет
Текст #1
Идентификатор : 4
Формат : UTF-8
Идентификатор кодека : S_TEXT/UTF8
Идентификатор кодека/Информация : UTF-8 Plain Text
Язык : Russian
Default : Нет
Forced : Нет
Текст #2
Идентификатор : 5
Формат : UTF-8
Идентификатор кодека : S_TEXT/UTF8
Идентификатор кодека/Информация : UTF-8 Plain Text
Язык : English
Default : Нет
Forced : Нет

Скриншоты

[Профиль] [ЛС]
Кто просматривает тему:

Показать сообщения:    

Текущее время: Сегодня 08:29

Часовой пояс: GMT



Вы не можете начинать темы
Вы не можете отвечать на сообщения
Вы не можете редактировать свои сообщения
Вы не можете удалять свои сообщения
Вы не можете голосовать в опросах
Вы не можете прикреплять файлы к сообщениям
Вы не можете скачивать файлы