Спектакль / Tamasha (2015) BDRip 720p | L, L2

 
Автор Сообщение

Russian Mafia ®

Пол:

Стаж: 1 год 8 месяцев

Сообщений: 4257



Награды: 10 (Подробнее)

Mega Seeder 4 (Количество: 1) Mega Seeder 2 (Количество: 1) Mega Seeder 1 (Количество: 1)
Торрент-статистика

Создавать темы 12-Авг-2016 09:26

[Цитировать]

СпектакльTamasha- Страна: Индия
Жанр: драма, мелодрама, комедия
Год выпуска: 2015
Продолжительность: 02:18:56
Перевод: Любительский (многоголосый, закадровый), Любительский (двухголосый, закадровый)
Субтитры: русские (на песни).-Режиссер: Имтиаз Али / Imtiaz Ali-В ролях: Дипика Падукон, Ранбир Капур, Пиюш Мишра, Сушма Сетх, Джавед Шейх, Никхил Бхагат-Описание: Вед вырос среди историй. В детстве, в Шимла, он собирал и даже воровал деньги, чтобы старый сказочник рассказывал ему истории. Рамайан, Елена Троянская, Лайла Маджну, Хир Ранджа, Аладин, Ромео и Джульетта. .. Кто-то мог бы сказать, что все эти истории одинаковы.
Вед хочет в его истории с Тарой быть другим. Поэтому они решили не рассказывать друг другу, кто они на самом деле, а только лгать о себе. И уехать с острова, чтобы никогда больше не встретиться друг с другом. Но они встречаются вновь. Вопрос в том, смогут ли они создавать свою историю так, как им захочется? Будет ли муза в состоянии из обычного человека сотворить художника? Получится у Веда разорвать оковы обычного существования и избежать корпоративных «крысиных гонок» и стать таким, каким Тара видит его в его буйных рассказах?- -Семпл-Качество: BDRip
Контейнер: MKV
Видео: AVC, 1280x544 (2.35:1), 6178 Kbps, 24 fps, 0,375 bpp
Аудио №1: русский / AC3 / 5.1 / 48 kHz / 448 kbps / MVO ( ICG )
Аудио №2: русский / AC3 / 2.0 / 48 kHz / 192 kbps / DVO ( Honey&Haseena )
Аудио №3: хинди / AC3 / 5.1 / 48 kHz / 640 kbps
Навигация по главам: есть-

Media Info

*************************************************************************
x264 [info]: frame I:1540 Avg QP:15.32 size:133675
x264 [info]: frame P:46632 Avg QP:16.94 size: 59259
x264 [info]: frame B:151902 Avg QP:18.63 size: 23856
*************************************************************************
Формат : Matroska
Версия формата : Version 2
Размер файла : 7,39 Гбайт
Продолжительность : 2 ч. 18 м.
Общий поток : 7610 Кбит/сек
Название фильма : = Спектакль / Tamasha / (2015) BDRip 720p by SC Kosmos =
Дата кодирования : UTC 2016-08-08 10:43:41
Программа кодирования : mkvmerge v5.8.0 ('No Sleep / Pillow') built on Sep 2 2012 15:37:04
Библиотека кодирования : libebml v1.2.3 + libmatroska v1.3.0
Attachment : Yes
Видео
Идентификатор : 1
Формат : AVC
Формат/Информация : Advanced Video Codec
Профиль формата : High@L4.1
Параметр CABAC формата : Да
Параметр ReFrames формата : 12 кадров
Идентификатор кодека : V_MPEG4/ISO/AVC
Продолжительность : 2 ч. 18 м.
Битрейт : 6178 Кбит/сек
Ширина : 1280 пикселей
Высота : 536 пикселей
Соотношение сторон : 2,40:1
Режим частоты кадров : Постоянный
Частота кадров : 24,000 кадра/сек
Цветовое пространство : YUV
Субдискретизация насыщенности : 4:2:0
Битовая глубина : 8 бит
Тип развёртки : Прогрессивная
Бит/(Пиксели*Кадры) : 0.375
Размер потока : 6,00 Гбайт (81%)
Заголовок : Спектакль / Tamasha / (2015) BDRip 720p by SC Kosmos
Библиотека кодирования : x264 core 146 r2538 121396c
Настройки программы : cabac=1 / ref=12 / deblock=1:-3:-3 / analyse=0x3:0x113 / me=umh / subme=11 / psy=1 / psy_rd=1.00:0.05 / mixed_ref=1 / me_range=32 / chroma_me=1 / trellis=2 / 8x8dct=1 / cqm=0 / deadzone=21,11 / fast_pskip=0 / chroma_qp_offset=-3 / threads=12 / lookahead_threads=3 / sliced_threads=0 / nr=0 / decimate=1 / interlaced=0 / bluray_compat=0 / constrained_intra=0 / bframes=10 / b_pyramid=2 / b_adapt=2 / b_bias=0 / direct=3 / weightb=1 / open_gop=0 / weightp=2 / keyint=240 / keyint_min=24 / scenecut=40 / intra_refresh=0 / rc_lookahead=50 / rc=crf / mbtree=0 / crf=17.0 / qcomp=0.60 / qpmin=0 / qpmax=69 / qpstep=4 / vbv_maxrate=62500 / vbv_bufsize=78125 / crf_max=0.0 / nal_hrd=none / filler=0 / ip_ratio=1.40 / pb_ratio=1.30 / aq=1:1.00
Язык : Hindi
Default : Да
Forced : Нет
Основные цвета : BT.709
Характеристики трансфера : BT.709
Коэффициенты матрицы : BT.709
Аудио #1
Идентификатор : 2
Формат : AC-3
Формат/Информация : Audio Coding 3
Расширение режима : CM (complete main)
Параметр Endianness формата : Big
Идентификатор кодека : A_AC3
Продолжительность : 2 ч. 18 м.
Вид битрейта : Постоянный
Битрейт : 448 Кбит/сек
Каналы : 6 каналов
Расположение каналов : Front: L C R, Side: L R, LFE
Частота : 48,0 КГц
Битовая глубина : 16 бит
Метод сжатия : С потерями
Размер потока : 445 Мбайт (6%)
Заголовок : MVO ( ICG )
Язык : Russian
Default : Да
Forced : Нет
Аудио #2
Идентификатор : 3
Формат : AC-3
Формат/Информация : Audio Coding 3
Расширение режима : CM (complete main)
Параметр Endianness формата : Big
Идентификатор кодека : A_AC3
Продолжительность : 2 ч. 18 м.
Вид битрейта : Постоянный
Битрейт : 192 Кбит/сек
Каналы : 2 канала
Расположение каналов : Front: L R
Частота : 48,0 КГц
Битовая глубина : 16 бит
Метод сжатия : С потерями
Размер потока : 191 Мбайт (3%)
Заголовок : DVO ( Honey&Haseena )
Язык : Russian
Default : Нет
Forced : Нет
Аудио #3
Идентификатор : 4
Формат : AC-3
Формат/Информация : Audio Coding 3
Расширение режима : CM (complete main)
Параметр Endianness формата : Big
Идентификатор кодека : A_AC3
Продолжительность : 2 ч. 18 м.
Вид битрейта : Постоянный
Битрейт : 640 Кбит/сек
Каналы : 6 каналов
Расположение каналов : Front: L C R, Side: L R, LFE
Частота : 48,0 КГц
Битовая глубина : 16 бит
Метод сжатия : С потерями
Размер потока : 636 Мбайт (8%)
Язык : Hindi
Default : Нет
Forced : Нет
Текст
Идентификатор : 5
Формат : UTF-8
Идентификатор кодека : S_TEXT/UTF8
Идентификатор кодека/Информация : UTF-8 Plain Text
Заголовок : ( на песни )
Язык : Russian
Default : Да
Forced : Нет
Меню
00:00:00.000 : en:00:00:00.000
00:09:29.707 : en:00:09:29.707
00:15:29.250 : en:00:15:29.250
00:25:51.540 : en:00:25:51.540
00:30:28.333 : en:00:30:28.333
00:46:07.958 : en:00:46:07.958
00:49:01.541 : en:00:49:01.541
00:53:35.541 : en:00:53:35.541
01:02:34.791 : en:01:02:34.791
01:11:33.000 : en:01:11:33.000
01:21:02.582 : en:01:21:02.582
01:25:53.375 : en:01:25:53.375
01:33:44.541 : en:01:33:44.541
01:37:34.582 : en:01:37:34.582
01:45:03.000 : en:01:45:03.000
01:47:48.750 : en:01:47:48.750
01:55:03.375 : en:01:55:03.375
02:04:35.291 : en:02:04:35.291
02:15:27.457 : en:02:15:27.457
-

Скриншоты


[Профиль] [ЛС]
Показать сообщения:    

Текущее время: Сегодня 03:22

Часовой пояс: GMT



Вы не можете начинать темы
Вы не можете отвечать на сообщения
Вы не можете редактировать свои сообщения
Вы не можете удалять свои сообщения
Вы не можете голосовать в опросах
Вы не можете прикреплять файлы к сообщениям
Вы не можете скачивать файлы