Спасти рядового Райана / Saving Private Ryan (1998) BDRip 1080p

 
Автор Сообщение

Russian Mafia ®

Пол:

Стаж: 1 год 8 месяцев

Сообщений: 4253



Награды: 10 (Подробнее)

Mega Seeder 4 (Количество: 1) Mega Seeder 2 (Количество: 1) Top Releaser 5 (Количество: 1)
Торрент-статистика

Создавать темы 08-Сен-2015 10:28

[Цитировать]

Информация о фильме
Название: Спасти рядового Райана
Оригинальное название: Saving Private Ryan
Год выхода: 1998
Жанр: боевик, драма, военный, история
Режиссер: Стивен Спилберг
В ролях: Том Хэнкс, Том Сайзмор, Эдвард Бёрнс, Бэрри Пеппер, Адам Голдберг, Вин Дизель, Джованни Рибизи, Джереми Дэвис, Мэтт Дэймон, Тед Дэнсон
О фильме: Капитан Джон Миллер получает тяжелое задание. Вместе с отрядом из восьми человек Миллер должен отправиться в тыл врага на поиски рядового Джеймса Райана, три родных брата которого почти одновременно погибли на полях сражений.
Командование приняло решение демобилизовать Райана и отправить его на родину к безутешной матери. Но для того, чтобы найти и спасти солдата, крошечному отряду придется пройти через все круги ада…

Выпущено: Amblin Entertainment
Продолжительность: 02:48:21
Перевод: Дублированный
Файл
Кодек: x264
Качество: BDRip (источник: Blu-ray Disc)
Видео: 1920x1032 (1,860), 23.976 fps, 5860 kbps
Аудио #1: 48 kHz, AC-3, 6 ch, 448 kbps (Rus)
Аудио #2: 48 kHz, AC-3, 6 ch, 448 kbps (Eng)
Субтитры: Русские, Английские
Скриншоты

MI

Общее
Уникальный идентификатор : 221624425201403877574195052611567797422 (0xA6BB4FCAEF79EC5BBD6D69F8F05AC4AE)
Полное имя : Saving.Private.Ryan.1998.BDRip.1080p.Rus.Eng.mkv
Формат : Matroska
Версия формата : Version 2
Размер файла : 7,94 Гбайт
Продолжительность : 2 ч. 48 м.
Общий поток : 6754 Кбит/сек
Дата кодирования : UTC 2011-10-29 05:53:57
Программа кодирования : mkvmerge v4.0.0 ('The Stars were mine') сборка от Jun 6 2010 16:18:42
Библиотека кодирования : libebml v1.0.0 + libmatroska v1.0.0
Видео
Идентификатор : 1
Формат : AVC
Формат/Информация : Advanced Video Codec
Профиль формата : High@L4.1
Параметр CABAC формата : Да
Параметр ReFrames формата : 4 кадра
Идентификатор кодека : V_MPEG4/ISO/AVC
Продолжительность : 2 ч. 48 м.
Битрейт : 5860 Кбит/сек
Ширина : 1920 пикселей
Высота : 1032 пикселя
Соотношение сторон : 1,860
Частота кадров : 23,976 кадра/сек
Цветовое пространство : YUV
Субдискретизация насыщенности : 4:2:0
Битовая глубина : 8 бит
Тип развёртки : Прогрессивная
Бит/(Пиксели*Кадры) : 0.123
Размер потока : 6,73 Гбайт (85%)
Библиотека кодирования : x264 core 119 r2106 07efeb4
Настройки программы : cabac=1 / ref=4 / deblock=1:0:0 / analyse=0x3:0x133 / me=umh / subme=10 / psy=1 / psy_rd=1.00:0.10 / mixed_ref=1 / me_range=32 / chroma_me=1 / trellis=2 / 8x8dct=1 / cqm=0 / deadzone=21,11 / fast_pskip=0 / chroma_qp_offset=-3 / threads=12 / sliced_threads=0 / nr=0 / decimate=1 / interlaced=0 / bluray_compat=0 / constrained_intra=0 / bframes=5 / b_pyramid=2 / b_adapt=2 / b_bias=0 / direct=3 / weightb=1 / open_gop=0 / weightp=2 / keyint=240 / keyint_min=24 / scenecut=40 / intra_refresh=0 / rc_lookahead=60 / rc=2pass / mbtree=1 / bitrate=5860 / ratetol=1.0 / qcomp=0.60 / qpmin=0 / qpmax=69 / qpstep=4 / cplxblur=20.0 / qblur=0.5 / ip_ratio=1.40 / aq=1:1.00
Язык : English
Аудио #1
Идентификатор : 2
Формат : AC-3
Формат/Информация : Audio Coding 3
Расширение режима : CM (complete main)
Идентификатор кодека : A_AC3
Продолжительность : 2 ч. 48 м.
Вид битрейта : Постоянный
Битрейт : 448 Кбит/сек
Каналы : 6 каналов
Расположение каналов : Front: L C R, Side: L R, LFE
Частота : 48,0 КГц
Битовая глубина : 16 бит
Метод сжатия : С потерями
Размер потока : 539 Мбайт (7%)
Язык : Russian
Аудио #2
Идентификатор : 3
Формат : AC-3
Формат/Информация : Audio Coding 3
Расширение режима : CM (complete main)
Идентификатор кодека : A_AC3
Продолжительность : 2 ч. 48 м.
Вид битрейта : Постоянный
Битрейт : 448 Кбит/сек
Каналы : 6 каналов
Расположение каналов : Front: L C R, Side: L R, LFE
Частота : 48,0 КГц
Битовая глубина : 16 бит
Метод сжатия : С потерями
Размер потока : 539 Мбайт (7%)
Язык : English
Текст #1
Идентификатор : 4
Формат : UTF-8
Идентификатор кодека : S_TEXT/UTF8
Идентификатор кодека/Информация : UTF-8 Plain Text
Язык : Russian
Текст #2
Идентификатор : 5
Формат : UTF-8
Идентификатор кодека : S_TEXT/UTF8
Идентификатор кодека/Информация : UTF-8 Plain Text
Язык : English
Меню
00:00:00.000 : :Chapter 01
00:03:48.353 : :Chapter 02
00:13:04.992 : :Chapter 03
00:18:14.802 : :Chapter 04
00:26:11.403 : :Chapter 05
00:35:29.710 : :Chapter 06
00:45:05.452 : :Chapter 07
00:56:57.372 : :Chapter 08
01:04:44.255 : :Chapter 09
01:13:03.754 : :Chapter 10
01:16:59.990 : :Chapter 11
01:23:22.998 : :Chapter 12
01:34:47.640 : :Chapter 13
01:46:01.104 : :Chapter 14
01:58:53.459 : :Chapter 15
02:06:43.512 : :Chapter 16
02:16:29.514 : :Chapter 17
02:26:12.305 : :Chapter 18
02:32:00.653 : :Chapter 19
02:41:56.832 : :Chapter 20
[Профиль] [ЛС]
Кто просматривает тему:

Форум Тема Автор Размер
BBC BBC: Армада. Неизвестная история (12 дней, чтобы спасти Англию) / Armada: The Untold Story (12 Days to Save England) [серии 1-3 из 3] (Робин Дешвуд / Robin Dashwood, Тим Дан / Tim Dunn) [2015... skorpionN 5.59 GB
BBC BBC: Армада. Неизвестная история (Армада: 12 дней, чтобы спасти Англию) / Armada: 12 Days to Save England [серии 1-3 из 3] (Робин Дешвуд / Robin Dashwood, Тим Дан / Tim D... skorpionN 2.16 GB
National Geographic National Geographic. Спасти планету / Before the Flood (2016) WEBRip от ExKinoRay | D Zithylord 1.37 GB
Фантастика, фэнтези Коллектив авторов - Спасти человека. Лучшая фантастика 2016 (сборник) (2016) FB2 достали все 2 MB
Фантастика и фэнтези Роман Злотников, Михаил Ремер – Исправленная летопись 01. Спасти Москву (2016) MP3 Swager 628 MB
Отечественные cериалы Спасти босса [01-24 из 24] (2012) WEB-DL 1080p достали все 51.84 GB
Отечественные cериалы Спасти босса [01-24 из 24] (2012) WEB-DL 720p достали все 17.64 GB
Отечественные cериалы Спасти босса [01-24 из 24] (2012) WEB-DLRip достали все 14.31 GB
Показать сообщения:    

Текущее время: Сегодня 08:33

Часовой пояс: GMT



Вы не можете начинать темы
Вы не можете отвечать на сообщения
Вы не можете редактировать свои сообщения
Вы не можете удалять свои сообщения
Вы не можете голосовать в опросах
Вы не можете прикреплять файлы к сообщениям
Вы не можете скачивать файлы