Спасти Землю в 3Д / Echo Planet 3D (Компин Кемгумнирд / Kompin Kemgumnird) [2012, Мультфильм, BDrip-AVC] Half OverUnder / Вертикальная анаморфная стереопара

 
Автор Сообщение

reversefile ®

Пол:

Стаж: 4 года 5 месяцев

Сообщений: 842

Откуда: ReverseFile.org



Награды: Нет

Торрент-статистика

Создавать темы 25-Июл-2014 01:08

[Цитировать]

Спасти Землю
Echo Planet

Год выпуска: 2012
Страна: Таиланд (Moviemax, Kantana Animation Studios)
Жанр: Мультфильм
Продолжительность: 1:22:05
Перевод: Профессиональный дублированный
Режиссер: Компин Кемгумнирд / Kompin Kemgumnird
Роли озвучивали: Ноппан Чантасорн, Атхипич Чутиваткаджорнчай, Конгдей Джатуранрасаме, Тходсапол Сирививат, Нуэнгтхида Сопхон
Описание: Простой американский мальчик, Сэмуэл Джонсон младший, вступил в бойскауты и пропал во время похода. Правда, он сын президента, так что он не может пропасть просто так — и обязательно найдет выход. Сэм провалился сквозь землю и оказался на противоположном конце света- в непроходимых джунглях. Именно там его ожидает страшное известие — из-за того, что люди перестали беречь Землю наша планета в опасности и только он может ее спасти. А помогать ему в этом нелегком деле будет бесстрашная воительница Нарва со своим братом. Друзей ждут необыкновенны приключения и практически нереальная задача — cпасти Землю, когда против тебя весь мир.-Премьера: 2 августа 2012 (12 сентября 2013)
Релиз на DVD (Россия): 17 октября 2013

. .
За исходный BD 3D спасибо и АДмин!
-Качество: BDRip (by Ash61)
Контейнер: MKV
Формат 3D: Half OverUnder / Вертикальная анаморфная стереопара
Порядок ракурсов: левый ракурс первый
Видео кодек: x264
Аудио кодек: AC3-Видео: AVC / 23,976 fps / 1920х1080p / ~8.9 Mbps
Аудио:
#1 - Русский / AC3 / 48 KHz / 5.1 ch / 256 Kbps (Дубляж - R5)
#2 - Английский / AC3 / 48 KHz / 5.1 ch / 640 Kbps
Субтитры: Отсутствуют

MediaInfo

General
Unique ID : 212777831545797720002223982872271600655 (0xA013850CDDEDE4BCA6D8409DA74D3C0F)
Complete name : E:\EchoPlanet(2012)3D-halfOU(Ash61).mkv
Format : Matroska
Format version : Version 2
File size : 5.75 GiB
Duration : 1h 22mn
Overall bit rate : 10.0 Mbps
Movie name : Спасти Землю / Echo Planet (2012) 3D
Encoded date : UTC 2014-03-04 19:39:27
Writing application : mkvmerge v5.8.0 ('No Sleep / Pillow') built on Sep 2 2012 15:37:04
Writing library : libebml v1.2.3 + libmatroska v1.3.0
Video
ID : 1
Format : AVC
Format/Info : Advanced Video Codec
Format profile : High@L4.1
Format settings, CABAC : Yes
Format settings, ReFrames : 4 frames
Codec ID : V_MPEG4/ISO/AVC
Duration : 1h 22mn
Bit rate : 8 935 Kbps
Width : 1 920 pixels
Height : 1 080 pixels
Display aspect ratio : 16:9
Frame rate mode : Constant
Frame rate : 23.976 fps
Color space : YUV
Chroma subsampling : 4:2:0
Bit depth : 8 bits
Scan type : Progressive
Bits/(Pixel*Frame) : 0.180
Stream size : 5.12 GiB (89%)
Title : BDRip by Ash61
Writing library : x264 core 129 r2245 bc13772
Encoding settings : cabac=1 / ref=4 / deblock=1:-3:-3 / analyse=0x3:0x113 / me=umh / subme=10 / psy=1 / psy_rd=1.00:0.15 / mixed_ref=1 / me_range=32 / chroma_me=1 / trellis=2 / 8x8dct=1 / cqm=0 / deadzone=21,11 / fast_pskip=1 / chroma_qp_offset=-3 / threads=12 / lookahead_threads=2 / sliced_threads=0 / nr=0 / decimate=1 / interlaced=0 / bluray_compat=0 / constrained_intra=0 / bframes=10 / b_pyramid=2 / b_adapt=2 / b_bias=0 / direct=3 / weightb=1 / open_gop=0 / weightp=2 / keyint=250 / keyint_min=23 / scenecut=40 / intra_refresh=0 / rc_lookahead=60 / rc=crf / mbtree=1 / crf=17.5 / qcomp=0.70 / qpmin=0 / qpmax=69 / qpstep=4 / vbv_maxrate=40000 / vbv_bufsize=30000 / crf_max=0.0 / nal_hrd=none / frame-packing=4 / ip_ratio=1.40 / aq=1:0.70
Language : Thai
Default : Yes
Forced : No
Audio #1
ID : 2
Format : AC-3
Format/Info : Audio Coding 3
Mode extension : CM (complete main)
Format settings, Endianness : Big
Codec ID : A_AC3
Duration : 1h 22mn
Bit rate mode : Constant
Bit rate : 256 Kbps
Channel(s) : 6 channels
Channel positions : Front: L C R, Side: L R, LFE
Sampling rate : 48.0 KHz
Bit depth : 16 bits
Compression mode : Lossy
Stream size : 150 MiB (3%)
Language : Russian
Default : Yes
Forced : No
Audio #2
ID : 3
Format : AC-3
Format/Info : Audio Coding 3
Mode extension : CM (complete main)
Format settings, Endianness : Big
Codec ID : A_AC3
Duration : 1h 22mn
Bit rate mode : Constant
Bit rate : 640 Kbps
Channel(s) : 6 channels
Channel positions : Front: L C R, Side: L R, LFE
Sampling rate : 48.0 KHz
Bit depth : 16 bits
Compression mode : Lossy
Stream size : 376 MiB (6%)
Language : English
Default : No
Forced : No
Menu
00:00:00.000 : :1
00:04:42.991 : :2
00:09:29.778 : :3
00:12:57.110 : :4
00:16:39.916 : :5
00:20:34.358 : :6
00:25:20.519 : :7
00:29:24.680 : :8
00:34:15.178 : :9
00:38:53.122 : :10
00:44:00.388 : :11
00:48:55.558 : :12
00:55:06.637 : :13
01:02:16.858 : :14
01:09:37.465 : :15
01:16:28.250 : :16

Скриншоты

Для оценки 3Д - Анимированные скрины









[Профиль] [ЛС]
Кто просматривает тему:

Форум Тема Автор Размер
BBC BBC: Армада. Неизвестная история (12 дней, чтобы спасти Англию) / Armada: The Untold Story (12 Days to Save England) [серии 1-3 из 3] (Робин Дешвуд / Robin Dashwood, Тим Дан / Tim Dunn) [2015... skorpionN 5.59 GB
BBC BBC: Армада. Неизвестная история (Армада: 12 дней, чтобы спасти Англию) / Armada: 12 Days to Save England [серии 1-3 из 3] (Робин Дешвуд / Robin Dashwood, Тим Дан / Tim D... skorpionN 2.16 GB
National Geographic National Geographic. Спасти планету / Before the Flood (2016) WEBRip от ExKinoRay | D Zithylord 1.37 GB
Фантастика, фэнтези Коллектив авторов - Спасти человека. Лучшая фантастика 2016 (сборник) (2016) FB2 достали все 2 MB
Фантастика и фэнтези Роман Злотников, Михаил Ремер – Исправленная летопись 01. Спасти Москву (2016) MP3 Swager 628 MB
Отечественные cериалы Спасти босса [01-24 из 24] (2012) WEB-DL 1080p достали все 51.84 GB
Отечественные cериалы Спасти босса [01-24 из 24] (2012) WEB-DL 720p достали все 17.64 GB
Отечественные cериалы Спасти босса [01-24 из 24] (2012) WEB-DLRip достали все 14.31 GB
Показать сообщения:    

Текущее время: Сегодня 06:09

Часовой пояс: GMT



Вы не можете начинать темы
Вы не можете отвечать на сообщения
Вы не можете редактировать свои сообщения
Вы не можете удалять свои сообщения
Вы не можете голосовать в опросах
Вы не можете прикреплять файлы к сообщениям
Вы не можете скачивать файлы