Спасибо папа, спасибо мама! / Merci papa, merci maman! (Винсент Джованни / Vincent Giovanni) [2010, Франция, Комедия, HDTVRip] DVO (ТПО Ред Медиа) + DVO (SDI Media)

 
Автор Сообщение

TorrentFilm ®

Пол:

Стаж: 2 года 6 месяцев

Сообщений: 7773



Награды: Нет

Торрент-статистика

Создавать темы 26-Апр-2015 00:03

[Цитировать]

Спасибо папа, спасибо мама! / Merci papa, merci maman!
Страна: Франция
Жанр: Комедия
Год выпуска: 2010
Продолжительность: 01:27:00
Перевод: Профессиональный (двухголосый закадровый) ТПО Ред Медиа
Перевод 2: Профессиональный (двухголосый закадровый) SDI Media
Cубтитры: нет
Режиссер: Винсент Джованни / Vincent Giovanni
В ролях: Себастьян Кнафо (Денис), Лоран Урнак (Жиль-Анри), Франсис Перрен (Андре), Фату Н'Диайе (Одри), Жюльетт Беттенкур (Луиза)
Описание: В центре истории, о которой рассказывает фильм «Спасибо папа, спасибо мама» (Merci papa, merci maman!) – мужчина по имени Денис (Себастьян Кнафо), который из своих 30 лет 20 потратил на то, чтобы открывать чужие сейфы. И больше всего в жизни он ненавидит детей. Жиль-Анри (Лоран Урнак), другое действующее лицо картины, в течении своих 30 лет 25 прилежно учился, благодаря чему унаследовал только что большое состояние. Теперь, впервые в жизни, он намерен пойти поработать: Жиль-Анри сумел убедить свою мать разрешить ему инкогнито поехать на лето инструктором в детский лагерь, принадлежащий его семье.
У Дениса дела идут не важно – очередное вооруженное ограбление пошло не совсем по плану – и теперь ему необходимо где-то затаиться. Впервые в жизни герой фильма «Спасибо папа, спасибо мама!» устраивается на честную работу, и не куда-нибудь, а именно в тот лагерь, где уже находится Жиль-Анри. Теперь этим двоим придется управляться с группой шумных и непоседливых подростков…
Доп. информация: Релиз STARBIT
Сэмпл: https://yadi.sk/i/Wpe7R2Adg2GET
Качество видео: HDTVRip [rip by maygli]
Формат видео: AVI
Видео: 720x400 (16:9), 25 fps, XviD MPEG-4 ~1996 kbps avg, 0.277 bit/pixel
Аудио: 48 kHz, AC3 Dolby Digital, 2/0 (L,R) ch, ~192 kbps
Аудио 2: 48 kHz, AC3 Dolby Digital, 2/0 (L,R) ch, ~192 kbps

MediaInfo

Спасибо папа, спасибо мама! - Merci papa, merci maman! .avi
Format : AVI
Format/Info : Audio Video Interleave
File size : 1.45 GiB
Duration : 1h 27mn
Overall bit rate : 2 393 Kbps
Video
ID : 0
Format : MPEG-4 Visual
Format profile : Advanced Simple@L5
Format settings, BVOP : 1
Format settings, QPel : No
Format settings, GMC : No warppoints
Format settings, Matrix : Custom
Codec ID : XVID
Codec ID/Hint : XviD
Duration : 1h 27mn
Bit rate : 1 995 Kbps
Width : 720 pixels
Height : 400 pixels
Display aspect ratio : 16:9
Frame rate : 25.000 fps
Color space : YUV
Chroma subsampling : 4:2:0
Bit depth : 8 bits
Scan type : Progressive
Compression mode : Lossy
Bits/(Pixel*Frame) : 0.277
Stream size : 1.21 GiB (83%)
Writing library : XviD 65
Audio #1
ID : 1
Format : AC-3
Format/Info : Audio Coding 3
Mode extension : CM (complete main)
Format settings, Endianness : Big
Codec ID : 2000
Duration : 1h 27mn
Bit rate mode : Constant
Bit rate : 192 Kbps
Channel(s) : 2 channels
Channel positions : Front: L R
Sampling rate : 48.0 KHz
Bit depth : 16 bits
Compression mode : Lossy
Stream size : 119 MiB (8%)
Alignment : Split accross interleaves
Interleave, duration : 40 ms (1.00 video frame)
Interleave, preload duration : 500 ms
Title : Профессиональный (двухголосый закадровый) ТПО Ред Медиа
Audio #2
ID : 2
Format : AC-3
Format/Info : Audio Coding 3
Mode extension : CM (complete main)
Format settings, Endianness : Big
Codec ID : 2000
Duration : 1h 27mn
Bit rate mode : Constant
Bit rate : 192 Kbps
Channel(s) : 2 channels
Channel positions : Front: L R
Sampling rate : 48.0 KHz
Bit depth : 16 bits
Compression mode : Lossy
Stream size : 119 MiB (8%)
Alignment : Split accross interleaves
Interleave, duration : 40 ms (1.00 video frame)
Interleave, preload duration : 500 ms
Title : Профессиональный (двухголосый закадровый) SDI Media

Скриншоты


[Профиль] [ЛС]

Создавать темы 06-Авг-2015 22:35 (спустя 3 месяца 10 дней)

Топик был перенесен из форума Фильмы до 2014 года в форум Фильмы до 2012 года
sergej644
 

Создавать темы 12-Июн-2016 07:54 (спустя 1 год 1 месяц)

Топик был перенесен из форума Фильмы 2011 года в форум Фильмы 2010 года
Russian Mafia
 
Показать сообщения:    

Текущее время: Сегодня 10:40

Часовой пояс: GMT



Вы не можете начинать темы
Вы не можете отвечать на сообщения
Вы не можете редактировать свои сообщения
Вы не можете удалять свои сообщения
Вы не можете голосовать в опросах
Вы не можете прикреплять файлы к сообщениям
Вы не можете скачивать файлы