Спасение / The Salvation (Кристиан Левринг / Kristian Levring) [2014 г., драма, вестерн, HDRip] [Лицензия]

 
Автор Сообщение

AleksSin ®

Пол:

Стаж: 6 лет

Сообщений: 218



Награды: 4 (Подробнее)

Mega Seeder 1 (Количество: 1) Mega Seeder 4 (Количество: 1) Mega Seeder 3 (Количество: 1)
Торрент-статистика

Создавать темы 29-Май-2015 08:22

[Цитировать]

Спасение / The Salvation«Плохие парни умоются кровью» Год выпуска: 2014
Страна: Дания, Великобритания, ЮАР
Жанр: драма, вестерн
Продолжительность: 01:27:56
Перевод: Профессиональный (полное дублирование) [Лицензия]
Режиссер: Кристиан Левринг / Kristian Levring
В ролях: Мадс Миккельсен , Ева Грин , Джеффри Дин Морган , Эрик Кантона , Микаэл Персбрандт , Дуглас Хеншэлл , Майкл Рэймонд-Джеймс , Джонатан Прайс , Александр Арнольд , Нанна Оланд Фабрициус , Токе Бьярке , Шон Майкл
Описание: Джон, фермер, чья семья убита, дает клятву отомстить, выслеживает и наказывает убийцу. Его действия запускают цепочку насилия: лидер местной банды со своими напарниками решает расправиться с Джоном и его деревней.

Качество: HDRip (Исх. BDRip 720p)
Формат: AVI
Видео кодек: XviD
Аудио кодек: MP3
Видео: 720x304 (2.37:1), 25 fps, XviD build 73 ~1047 kbps avg, 0.19 bit/pixel
Аудио: 48 kHz, MPEG Layer 3, 2 ch, ~128.00 kbps avg

MediaInfo

Общее
Полное имя : S:ФильмыСпасение. 2014. HDRip (AleksSin).avi
Формат : AVI
Формат/Информация : Audio Video Interleave
Размер файла : 745 Мбайт
Продолжительность : 1 ч. 27 м.
Общий поток : 1185 Кбит/сек
Программа кодирования : VirtualDubMod 1.5.10.3 | www.virtualdub-fr.org || (build 2550/release)
Библиотека кодирования : VirtualDubMod build 2550/release
Видео
Идентификатор : 0
Формат : MPEG-4 Visual
Профиль формата : Advanced Simple@L5
Параметр BVOP формата : 1
Параметр QPel формата : Нет
Параметр GMC формата : Без точки перехода
Параметр матрицы формата : Выборочная
Идентификатор кодека : XVID
Идентификатор кодека/Подсказка : XviD
Продолжительность : 1 ч. 27 м.
Битрейт : 1047 Кбит/сек
Ширина : 720 пикс.
Высота : 304 пикс.
Соотношение сторон : 2,35:1
Частота кадров : 25,000 кадр/сек
Цветовое пространство : YUV
Подвыборка цветности : 4:2:0
Битовая глубина : 8 бит
Тип развёртки : Прогрессивная
Метод сжатия : С потерями
Бит/(Пиксели*Кадры) : 0.191
Размер потока : 659 Мбайт (88%)
Библиотека кодирования : XviD 73
Аудио
Идентификатор : 1
Формат : MPEG Audio
Версия формата : Version 1
Профиль формата : Layer 3
Идентификатор кодека : 55
Идентификатор кодека/Подсказка : MP3
Продолжительность : 1 ч. 27 м.
Вид битрейта : Постоянный
Битрейт : 128 Кбит/сек
Каналы : 2 канала
Частота : 48,0 КГц
Метод сжатия : С потерями
Размер потока : 80,5 Мбайт (11%)
Выравнивание : Соединение по промежуткам
Продолжительность промежутка : 40 мс. (1,00 видеокадр)
Время предзагрузки промежутка : 504 ms
Библиотека кодирования : LAME3.99r
Настройки программы : -m s -V 4 -q 2 -lowpass 17 -b 128

Скриншоты

[Профиль] [ЛС]
Кто просматривает тему:

Форум Тема Автор Размер
Научная и техническая литература Алексей Громаковский, Владислав Реховский - Книга, которая спасет вам жизнь за рулем (2015) PDF достали все 23 MB
Документальные HD Беар Гриллс: Кадры спасения / Bear Grylls: Xtrime survival caught on camera (Дэвид О\'Нейлл / David O\'neill) / 1-8 серии из (8) [2013, Документальный, экстрим, реальное ТВ, HDTV 1080p] TorrentFilm 8.49 GB
Фильмы 2014 года Бухта спасения / Deliverance Creek (Драма) [2014, Драма] WEB-DLRip | P BOSS 1.37 GB
Фильмы до 2000 года Ворон 3: Спасение / The Crow: Salvation (2000) HDRip от Шкипер | P Шкипер 1.37 GB
История, биографии, религия и искусство Ильин Андрей - Книга, которая спасет вам жизнь (2015) MP3 Swager 1.54 GB
Фильмы 2014 года Ложь во спасение / The Good Lie (2014) HDRip | iTunes BOSS 2.05 GB
R.G.TorrentFilm Video Ложь во спасение / Приятная ложь / The Good Lie (Филипп Фалардо / Philippe Falardeau) [2014 г., Драма, HDRip] MVO (iTunes) Один 777 770 MB
Отечественные cериалы Ложь во спасение [01-04 из 04] (2015) DVB достали все 3.5 GB
Показать сообщения:    

Текущее время: Сегодня 02:45

Часовой пояс: GMT



Вы не можете начинать темы
Вы не можете отвечать на сообщения
Вы не можете редактировать свои сообщения
Вы не можете удалять свои сообщения
Вы не можете голосовать в опросах
Вы не можете прикреплять файлы к сообщениям
Вы не можете скачивать файлы