Спасение / The Salvation (Кристиан Левринг / Kristian Levring) [2014, Дания, Великобритания, ЮАР, Драма, вестерн, HDRip] Dub (Line)

 
Автор Сообщение

TorrentFilm ®

Пол:

Стаж: 2 года

Сообщений: 7741



Награды: Нет

Торрент-статистика

Создавать темы 15-Янв-2015 00:15

[Цитировать]

--Спасение / The Salvation--«Плохие парни умоются кровью»- Страна: Дания, Великобритания, ЮАР
Жанр: Драма, вестерн
Год выпуска: 2014
Продолжительность: 01:28:19-Перевод: Профессиональный (дублированный) Line
Cубтитры: нет
Режиссер: Кристиан Левринг / Kristian Levring-В ролях: Мадс Миккельсен, Ева Грин, Джеффри Дин Морган, Эрик Кантона, Микаэл Персбрандт, Дуглас Хеншэлл, Майкл Рэймонд-Джеймс, Джонатан Прайс, Александр Арнольд, Нанна Оланд Фабрициус
Описание: Джон, фермер, чья семья убита, дает клятву отомстить, выслеживает и наказывает убийцу. Его действия запускают цепочку насилия: лидер местной банды со своими напарниками решает расправиться с Джоном и его деревней.

-|Сэмпл|IMDB|КиноПоиск|
-Качество видео: HDRip
Формат видео: AVI
Видео: 720x304 (2.37:1), 25 fps, XviD build 50 ~1831 kbps avg, 0.33 bit/pixel
Аудио: 48 kHz, AC3 Dolby Digital, 2/0 (L,R) ch, ~384 kbps

MediaInfo

Общее
Полное имя : F:\BD torrent\mytorrentsup\Spasenie.2014.D.HDRip.1400Mb.avi
Формат : AVI
Формат/Информация : Audio Video Interleave
Размер файла : 1,37 Гбайт
Продолжительность : 1 ч. 27 м.
Общий поток : 2226 Кбит/сек
Программа кодирования : VirtualDubMod 1.5.10.2 (build 2540/release)
Библиотека кодирования : VirtualDubMod build 2540/release
Видео
Идентификатор : 0
Формат : MPEG-4 Visual
Профиль формата : Advanced Simple@L5
Параметр BVOP формата : 2
Параметр QPel формата : Нет
Параметр GMC формата : Без точки перехода
Параметр матрицы формата : Default (MPEG)
Идентификатор кодека : XVID
Идентификатор кодека/Подсказка : XviD
Продолжительность : 1 ч. 27 м.
Битрейт : 1832 Кбит/сек
Ширина : 720 пикселей
Высота : 304 пикселя
Соотношение сторон : 2,35:1
Частота кадров : 25,000 кадров/сек
Цветовое пространство : YUV
Субдискретизация насыщенности : 4:2:0
Битовая глубина : 8 бит
Тип развёртки : Прогрессивная
Метод сжатия : С потерями
Бит/(Пиксели*Кадры) : 0.335
Размер потока : 1,13 Гбайт (82%)
Библиотека кодирования : XviD 1.2.1 (UTC 2008-12-04)
Аудио
Идентификатор : 1
Формат : AC-3
Формат/Информация : Audio Coding 3
Расширение режима : CM (complete main)
Параметр Endianness формата : Big
Идентификатор кодека : 2000
Продолжительность : 1 ч. 27 м.
Вид битрейта : Постоянный
Битрейт : 384 Кбит/сек
Каналы : 2 канала
Расположение каналов : Front: L R
Частота : 48,0 КГц
Битовая глубина : 16 бит
Метод сжатия : С потерями
Размер потока : 242 Мбайт (17%)
Выравнивание : Разделение по промежуткам
Продолжительность промежутка : 40 мс. (1,00 видеокадр)
Время предзагрузки промежутка : 500 мс.

Скриншот c названием фильма

Скриншоты

[Профиль] [ЛС]
Кто просматривает тему:

Форум Тема Автор Размер
Научная и техническая литература Алексей Громаковский, Владислав Реховский - Книга, которая спасет вам жизнь за рулем (2015) PDF достали все 23 MB
Документальные HD Беар Гриллс: Кадры спасения / Bear Grylls: Xtrime survival caught on camera (Дэвид О\'Нейлл / David O\'neill) / 1-8 серии из (8) [2013, Документальный, экстрим, реальное ТВ, HDTV 1080p] TorrentFilm 8.49 GB
Фильмы 2014 года Бухта спасения / Deliverance Creek (Драма) [2014, Драма] WEB-DLRip | P BOSS 1.37 GB
Фильмы до 2000 года Ворон 3: Спасение / The Crow: Salvation (2000) HDRip от Шкипер | P Шкипер 1.37 GB
История, биографии, религия и искусство Ильин Андрей - Книга, которая спасет вам жизнь (2015) MP3 Swager 1.54 GB
Фильмы 2014 года Ложь во спасение / The Good Lie (2014) HDRip | iTunes BOSS 2.05 GB
R.G.TorrentFilm Video Ложь во спасение / Приятная ложь / The Good Lie (Филипп Фалардо / Philippe Falardeau) [2014 г., Драма, HDRip] MVO (iTunes) Один 777 770 MB
Отечественные cериалы Ложь во спасение [01-04 из 04] (2015) DVB достали все 3.5 GB
Показать сообщения:    

Текущее время: Сегодня 22:41

Часовой пояс: GMT



Вы не можете начинать темы
Вы не можете отвечать на сообщения
Вы не можете редактировать свои сообщения
Вы не можете удалять свои сообщения
Вы не можете голосовать в опросах
Вы не можете прикреплять файлы к сообщениям
Вы не можете скачивать файлы