Спасение / The Salvation (Кристиан Левринг / Kristian Levring) [2014, Дания, Великобритания, ЮАР, драма, вестерн, HDRip] DVO (Студия Jaskier)

 
Автор Сообщение

TorrentFilm ®

Пол:

Стаж: 2 года

Сообщений: 7741



Награды: Нет

Торрент-статистика

Создавать темы 12-Янв-2015 00:00

[Цитировать]

Спасение / The Salvation
Страна: Дания, Великобритания, ЮАР
Жанр: драма, вестерн
Год выпуска: 2014
Продолжительность: 01:32:00
Перевод: Профессиональный (двухголосый закадровый) Студия Jaskier
Cубтитры: нет
Режиссер: Кристиан Левринг / Kristian Levring
В ролях: Мадс Миккельсен, Ева Грин, Джеффри Дин Морган, Эрик Кантона, Микаэл Персбрандт, Дуглас Хеншэлл, Майкл Рэймонд-Джеймс, Джонатан Прайс, Александр Арнольд, Нанна Оланд Фабрициус
Описание: Джон, фермер, чья семья убита, дает клятву отомстить, выслеживает и наказывает убийцу. Его действия запускают цепочку насилия: лидер местной банды со своими напарниками решает расправиться с Джоном и его деревней.
Сэмпл: http://multi-up.com/1025762
Качество видео: HDRip
Формат видео: AVI
Видео: XviD ~1879 Кбит/сек, 720x304, 24.000 кадра/сек
Аудио: AC3, 6 каналов, 384 Кбит/сек, 48 КГц

MediaInfo

Формат : AVI
Формат/Информация : Audio Video Interleave
Размер файла : 1,46 Гбайт
Продолжительность : 1 ч. 32 м.
Общий поток : 2272 Кбит/сек
Программа кодирования : VirtualDubMod 1.5.10.2 (build 2540/release)
Библиотека кодирования : VirtualDubMod build 2540/release
Видео
Идентификатор : 0
Формат : MPEG-4 Visual
Профиль формата : Advanced Simple@L5
Параметр BVOP формата : 2
Параметр QPel формата : Нет
Параметр GMC формата : Без точки перехода
Параметр матрицы формата : Default (MPEG)
Идентификатор кодека : XVID
Идентификатор кодека/Подсказка : XviD
Продолжительность : 1 ч. 32 м.
Битрейт : 1879 Кбит/сек
Ширина : 720 пикселей
Высота : 304 пикселя
Соотношение сторон : 2,35:1
Частота кадров : 24,000 кадра/сек
Цветовое пространство : YUV
Субдискретизация насыщенности : 4:2:0
Битовая глубина : 8 бит
Тип развёртки : Прогрессивная
Метод сжатия : С потерями
Бит/(Пиксели*Кадры) : 0.358
Размер потока : 1,21 Гбайт (83%)
Библиотека кодирования : XviD 1.2.1 (UTC 2008-12-04)
Аудио
Идентификатор : 1
Формат : AC-3
Формат/Информация : Audio Coding 3
Расширение режима : CM (complete main)
Параметр Endianness формата : Big
Идентификатор кодека : 2000
Продолжительность : 1 ч. 31 м.
Вид битрейта : Постоянный
Битрейт : 384 Кбит/сек
Каналы : 6 каналов
Расположение каналов : Front: L C R, Side: L R, LFE
Частота : 48,0 КГц
Битовая глубина : 16 бит
Метод сжатия : С потерями
Размер потока : 253 Мбайт (17%)
Выравнивание : Разделение по промежуткам
Продолжительность промежутка : 42 мс. (1,00 видеокадр)
Время предзагрузки промежутка : 500 мс.

Скриншоты

[Профиль] [ЛС]
Кто просматривает тему:

Форум Тема Автор Размер
Научная и техническая литература Алексей Громаковский, Владислав Реховский - Книга, которая спасет вам жизнь за рулем (2015) PDF достали все 23 MB
Документальные HD Беар Гриллс: Кадры спасения / Bear Grylls: Xtrime survival caught on camera (Дэвид О\'Нейлл / David O\'neill) / 1-8 серии из (8) [2013, Документальный, экстрим, реальное ТВ, HDTV 1080p] TorrentFilm 8.49 GB
Фильмы 2014 года Бухта спасения / Deliverance Creek (Драма) [2014, Драма] WEB-DLRip | P BOSS 1.37 GB
Фильмы до 2000 года Ворон 3: Спасение / The Crow: Salvation (2000) HDRip от Шкипер | P Шкипер 1.37 GB
История, биографии, религия и искусство Ильин Андрей - Книга, которая спасет вам жизнь (2015) MP3 Swager 1.54 GB
Фильмы 2014 года Ложь во спасение / The Good Lie (2014) HDRip | iTunes BOSS 2.05 GB
R.G.TorrentFilm Video Ложь во спасение / Приятная ложь / The Good Lie (Филипп Фалардо / Philippe Falardeau) [2014 г., Драма, HDRip] MVO (iTunes) Один 777 770 MB
Отечественные cериалы Ложь во спасение [01-04 из 04] (2015) DVB достали все 3.5 GB
Показать сообщения:    

Текущее время: Сегодня 12:14

Часовой пояс: GMT



Вы не можете начинать темы
Вы не можете отвечать на сообщения
Вы не можете редактировать свои сообщения
Вы не можете удалять свои сообщения
Вы не можете голосовать в опросах
Вы не можете прикреплять файлы к сообщениям
Вы не можете скачивать файлы