Спасение Грэйс Б. Джонс / Saving Grace B. Jones (Конни Стивенс / Connie Stevens) [2009, США, триллер, драма, WEB-DLRip] MVO (Кинопоказ) + Original Eng

 
Автор Сообщение

TorrentFilm ®

Пол:

Стаж: 2 года

Сообщений: 7741



Награды: Нет

Торрент-статистика

Создавать темы 19-Фев-2015 00:01

[Цитировать]

Спасение Грэйс Б. Джонс / Saving Grace B. Jones
Страна: США
Жанр: триллер, драма
Год выпуска: 2009
Продолжительность: 01:55:30
Перевод: Профессиональный (многоголосый закадровый) Кинопоказ
Cубтитры: нет
Оригинальная аудиодорожка: английский
Режиссер: Конни Стивенс / Connie Stevens
В ролях: Майкл Бин, Татум О’Нил, Пенелопа Энн Миллер, Джоэль Гретш, Тришиа Ли Фишер, Скотт Уилсон, Пайпер Лори, Одри Василевски, Грегори Джеймс, Райли Фанслер
Описание: Действие фильма происходит в 1950-х годах в городе штата Миссури, США. Жизнь супружеской пары превращается в кошмар, когда из тюрьмы выходит сестра мужа, которая собирается жить вместе с ними.
Сэмпл: http://multi-up.com/1033014
Качество видео: WEB-DLRip
Формат видео: AVI
Видео: MPEG4, XviD, 720x400 (16/9), 23.976 fps, 2 115 Kbps (0.306 bit/pixel)
Аудио: AC-3, 48.0 KHz, 2 ch, 192 Kbps, CBR - русский
Аудио 2: AC-3, 48.0 KHz, 6 ch, 384 Kbps, CBR - английский

MediaInfo

Общее
Полное имя : K:\Спасение Грэйс Б. Джонс.avi
Формат : AVI
Формат/Информация : Audio Video Interleave
Профиль формата : OpenDML
Размер файла : 2,19 Гбайт
Продолжительность : 1 ч. 55 м.
Общий поток : 2709 Кбит/сек
Название фильма : Спасение Грэйс Б. Джонс / Saving Grace B. Jones (2009)
Программа кодирования : VirtualDubMod 1.5.10.2 (build 2540/release)
Библиотека кодирования : VirtualDubMod build 2540/release
Правообладатель : miha2154
Видео
Идентификатор : 0
Формат : MPEG-4 Visual
Профиль формата : Advanced Simple@L5
Параметр BVOP формата : 1
Параметр QPel формата : Нет
Параметр GMC формата : Без точки перехода
Параметр матрицы формата : Выборочная
Идентификатор кодека : XVID
Идентификатор кодека/Подсказка : XviD
Продолжительность : 1 ч. 55 м.
Битрейт : 2115 Кбит/сек
Ширина : 720 пикселей
Высота : 400 пикселей
Соотношение сторон : 16:9
Частота кадров : 23,976 кадра/сек
Цветовое пространство : YUV
Субдискретизация насыщенности : 4:2:0
Битовая глубина : 8 бит
Тип развёртки : Прогрессивная
Метод сжатия : С потерями
Бит/(Пиксели*Кадры) : 0.306
Размер потока : 1,71 Гбайт (78%)
Библиотека кодирования : XviD 65
Аудио #1
Идентификатор : 1
Формат : AC-3
Формат/Информация : Audio Coding 3
Расширение режима : CM (complete main)
Параметр Endianness формата : Big
Идентификатор кодека : 2000
Продолжительность : 1 ч. 55 м.
Вид битрейта : Постоянный
Битрейт : 192 Кбит/сек
Каналы : 2 канала
Расположение каналов : Front: L R
Частота : 48,0 КГц
Битовая глубина : 16 бит
Метод сжатия : С потерями
Размер потока : 159 Мбайт (7%)
Выравнивание : Разделение по промежуткам
Продолжительность промежутка : 42 мс. (1,00 видеокадр)
Время предзагрузки промежутка : 500 мс.
Заголовок : Профессиональный (многоголосый закадровый) Кинопоказ
Аудио #2
Идентификатор : 2
Формат : AC-3
Формат/Информация : Audio Coding 3
Расширение режима : CM (complete main)
Параметр Endianness формата : Big
Идентификатор кодека : 2000
Продолжительность : 1 ч. 55 м.
Вид битрейта : Постоянный
Битрейт : 384 Кбит/сек
Каналы : 6 каналов
Расположение каналов : Front: L C R, Side: L R, LFE
Частота : 48,0 КГц
Битовая глубина : 16 бит
Метод сжатия : С потерями
Размер потока : 317 Мбайт (14%)
Выравнивание : Разделение по промежуткам
Продолжительность промежутка : 42 мс. (1,00 видеокадр)
Время предзагрузки промежутка : 500 мс.
Заголовок : Английский

Скриншоты


[Профиль] [ЛС]

Создавать темы 06-Авг-2015 22:44 (спустя 5 месяцев 15 дней)

Топик был перенесен из форума Фильмы до 2014 года в форум Фильмы до 2012 года
sergej644
 

Создавать темы 12-Июн-2016 08:48 (спустя 1 год 3 месяца)

Топик был перенесен из форума Фильмы 2011 года в форум Фильмы 2009 года
Russian Mafia
 
Кто просматривает тему:

Форум Тема Автор Размер
Научная и техническая литература Алексей Громаковский, Владислав Реховский - Книга, которая спасет вам жизнь за рулем (2015) PDF достали все 23 MB
Документальные HD Беар Гриллс: Кадры спасения / Bear Grylls: Xtrime survival caught on camera (Дэвид О\'Нейлл / David O\'neill) / 1-8 серии из (8) [2013, Документальный, экстрим, реальное ТВ, HDTV 1080p] TorrentFilm 8.49 GB
Фильмы 2014 года Бухта спасения / Deliverance Creek (Драма) [2014, Драма] WEB-DLRip | P BOSS 1.37 GB
Фильмы до 2000 года Ворон 3: Спасение / The Crow: Salvation (2000) HDRip от Шкипер | P Шкипер 1.37 GB
История, биографии, религия и искусство Ильин Андрей - Книга, которая спасет вам жизнь (2015) MP3 Swager 1.54 GB
Фильмы 2014 года Ложь во спасение / The Good Lie (2014) HDRip | iTunes BOSS 2.05 GB
R.G.TorrentFilm Video Ложь во спасение / Приятная ложь / The Good Lie (Филипп Фалардо / Philippe Falardeau) [2014 г., Драма, HDRip] MVO (iTunes) Один 777 770 MB
Отечественные cериалы Ложь во спасение [01-04 из 04] (2015) DVB достали все 3.5 GB
Показать сообщения:    

Текущее время: Сегодня 02:32

Часовой пояс: GMT



Вы не можете начинать темы
Вы не можете отвечать на сообщения
Вы не можете редактировать свои сообщения
Вы не можете удалять свои сообщения
Вы не можете голосовать в опросах
Вы не можете прикреплять файлы к сообщениям
Вы не можете скачивать файлы