Спасение Бога / Saving God (Дуан Кричтон / Duane Crichton) [2008, Канада, драма, криминал, HDRip] MVO

 
Автор Сообщение

reversefile ®

Пол:

Стаж: 4 года 11 месяцев

Сообщений: 842

Откуда: ReverseFile.org



Награды: Нет

Торрент-статистика

Создавать темы 13-Авг-2014 10:04

[Цитировать]

Спасение БогаSaving God- Страна: Канада
Жанр: драма, криминал
Год выпуска: 2008
Продолжительность: 01:41:03-Перевод: Любительский (многоголосый закадровый)
Субтитры: нет
Режиссер: Дуан Кричтон / Duane Crichton
В ролях:
Винг Рэймс, Дин МакДермотт, Рикардо Чавира, Дуэйн Мерфи, Дженелл Уильямс, Кейт Тодд, К.К. Коллинз, Ричард Ликок, Филлип Джарретт, Эгидио Тари-Описание: Амстронг Кэйн отсидел 15 лет за непредумышленное убийство. Незадолго до освобождения Амстронг меняется и находит Бога. Теперь, на свободе, он служит пастором в маленькой церкви, в той самой где служил когда-то еще его отец. В то время как бывший зэк пытается отремонтировать здание церкви и восстановить жизнь общины, которую он бросил много лет назад, он знакомится с Норрисом, молодым человеком на неправедном пути.-
MPAA: PG-13 - Детям до 13 лет просмотр не желателен-Качество: HDRip | Исходник BDRip 720p | sample
Контейнер: AVI
Видео: 688x384 (1.79:1), 23.976 fps, XviD build 65 ~897 kbps avg, 0.14 bit/pixel
Аудио: 48 kHz, MPEG Layer 3, 2 ch, ~128.00 kbps avg-

Скриншоты

Media Info

General
Complete name : E:\my_rip\Spasenie.Boga.2008.HDRip745.by.Дядя_Лёша.avi
Format : AVI
Format/Info : Audio Video Interleave
File size : 748 MiB
Duration : 1h 41mn
Overall bit rate : 1 035 Kbps
Writing application : VirtualDubMod 1.5.10.3 | www.virtualdub-fr.org || (build 2550/release)
Writing library : VirtualDubMod build 2550/release
Video
ID : 0
Format : MPEG-4 Visual
Format profile : Advanced Simple@L5
Format settings, BVOP : 1
Format settings, QPel : No
Format settings, GMC : No warppoints
Format settings, Matrix : Custom
Codec ID : XVID
Codec ID/Hint : XviD
Duration : 1h 41mn
Bit rate : 898 Kbps
Width : 688 pixels
Height : 384 pixels
Display aspect ratio : 16:9
Frame rate : 23.976 fps
Color space : YUV
Chroma subsampling : 4:2:0
Bit depth : 8 bits
Scan type : Progressive
Compression mode : Lossy
Bits/(Pixel*Frame) : 0.142
Stream size : 649 MiB (87%)
Writing library : XviD 65
Audio
ID : 1
Format : MPEG Audio
Format version : Version 1
Format profile : Layer 3
Mode : Joint stereo
Mode extension : MS Stereo
Codec ID : 55
Codec ID/Hint : MP3
Duration : 1h 41mn
Bit rate mode : Constant
Bit rate : 128 Kbps
Channel(s) : 2 channels
Sampling rate : 48.0 KHz
Compression mode : Lossy
Stream size : 92.5 MiB (12%)
Alignment : Aligned on interleaves
Interleave, duration : 42 ms (1.00 video frame)
Interleave, preload duration : 504 ms
Writing library : LAME3.99r
Encoding settings : -m j -V 4 -q 2 -lowpass 17 -b 128
[Профиль] [ЛС]

Создавать темы 06-Авг-2015 23:18 (спустя 11 месяцев 24 дня)

Топик был перенесен из форума Фильмы до 2014 года в форум Фильмы до 2012 года
sergej644
 

Создавать темы 12-Июн-2016 08:50 (спустя 1 год 9 месяцев)

Топик был перенесен из форума Фильмы 2011 года в форум Фильмы 2006-2008 года
Russian Mafia
 
Кто просматривает тему:

Показать сообщения:    

Текущее время: Сегодня 17:23

Часовой пояс: GMT



Вы не можете начинать темы
Вы не можете отвечать на сообщения
Вы не можете редактировать свои сообщения
Вы не можете удалять свои сообщения
Вы не можете голосовать в опросах
Вы не можете прикреплять файлы к сообщениям
Вы не можете скачивать файлы