Спасатель / The Guardian (Эндрю Дэвис / Andrew Davis) [2006, США, драма, приключения, BDRip] AVO (Гаврилов)

 
Автор Сообщение

TorrentFilm ®

Пол:

Стаж: 2 года

Сообщений: 7741



Награды: Нет

Торрент-статистика

Создавать темы 08-Апр-2015 00:03

[Цитировать]

Спасатель / The Guardian Страна: США
Жанр: драма, приключения
Год выпуска: 2006
Продолжительность: 02:19:04
Перевод: Авторский (одноголосый закадровый) Андрей Гаврилов
Cубтитры: нет
Режиссер: Эндрю Дэвис / Andrew Davis
В ролях: Кевин Костнер, Эштон Катчер, Села Уорд, Мелисса Сейджмиллер, Клэнси Браун, Омари Хардвик, Алекс Дэниелс, Дэниэл Л. Молтен, Эндрю Шанно, Адам Пеня
Описание: Бен Рэнделл, легендарный пловец-спасатель, когда-то в ужасной катастрофе потерял всю свою команду. Чтобы найти свое место в жизни, и забыть о том страшном событии, он решает пойти в училище, где в его обязанности входит тренировка молодых спасателей. Здесь, он сталкивается с молодым и талантливым пловцом «с характером» Джейком Фишером. В процессе обучения Бен помогает Джейку скомбинировать его характер с его способностями. В конце обучения они вдвоем отправляются к Аляске, в Берингово море, где Джейку придется пройти самое важное испытание…

Качество видео: BDRip спасибо Gellard
Формат видео: AVI
Видео кодек: XviD
Аудио кодек: AC3
Видео: 704x384 (1.83:1), 23.976 fps, XviD build 50 ~1853 kbps avg, 0.29 bit/pixel
Аудио: 48 kHz, AC3 Dolby Digital, 3/2 (L,C,R,l,r) + LFE ch, ~384 kbps

Доп.инфо

За перевод Гаврилова большое спасибо пользователям форума HDTracker:
The Undertaker; rydanes; Hattori Hanzo; kondratzx; dunhill200; lexal; Chistobaev; Xerman13; Brown15; Dr. Destructo; Luka69; doctor811; fly32; Letyoha3; Role; karantin66; Pain_70; edsz; therox; saenwert; Диммон; KerkP; Denis1980; carter64

MediaInfo

Полное имя : Спасатель 2006.avi
Формат : AVI
Формат/Информация : Audio Video Interleave
Профиль формата : OpenDML
Размер файла : 2,18 Гбайт
Продолжительность : 2 ч. 19 м.
Общий поток : 2244 Кбит/сек
Программа кодирования : VirtualDubMod 1.5.10.2 (build 2540/release)
Библиотека кодирования : VirtualDubMod build 2540/release
Видео
Идентификатор : 0
Формат : MPEG-4 Visual
Профиль формата : Advanced Simple@L5
Параметр BVOP формата : 1
Параметр QPel формата : Нет
Параметр GMC формата : Без точки перехода
Параметр матрицы формата : Выборочная
Идентификатор кодека : XVID
Идентификатор кодека/Подсказка : XviD
Продолжительность : 2 ч. 19 м.
Битрейт : 1848 Кбит/сек
Ширина : 704 пикселя
Высота : 384 пикселя
Соотношение сторон : 1,85:1
Частота кадров : 23,976 кадра/сек
Цветовое пространство : YUV
Субдискретизация насыщенности : 4:2:0
Битовая глубина : 8 бит
Тип развёртки : Прогрессивная
Метод сжатия : С потерями
Бит/(Пиксели*Кадры) : 0.285
Размер потока : 1,80 Гбайт (82%)
Библиотека кодирования : XviD 1.2.1 (UTC 2008-12-04)
Аудио
Идентификатор : 1
Формат : AC-3
Формат/Информация : Audio Coding 3
Расширение режима : CM (complete main)
Параметр Endianness формата : Big
Идентификатор кодека : 2000
Продолжительность : 2 ч. 19 м.
Вид битрейта : Постоянный
Битрейт : 384 Кбит/сек
Каналы : 6 каналов
Расположение каналов : Front: L C R, Side: L R, LFE
Частота : 48,0 КГц
Битовая глубина : 16 бит
Метод сжатия : С потерями
Размер потока : 382 Мбайт (17%)
Выравнивание : Разделение по промежуткам
Продолжительность промежутка : 42 мс. (1,00 видеокадр)
Время предзагрузки промежутка : 500 мс.

Скриншоты

[Профиль] [ЛС]

Создавать темы 06-Авг-2015 22:37 (спустя 3 месяца 28 дней)

Топик был перенесен из форума Фильмы до 2014 года в форум Фильмы до 2012 года
sergej644
 
Кто просматривает тему:

Форум Тема Автор Размер
Фильмы 2014 года Маленькие негодяи спасают положение / The Little Rascals Save the Day (Алекс Замм / Alex Zamm) [2014, США, комедия, семейный, HDRip-AVC] Dub bot 745 MB
Горячие Новинки Петька и Василий Иванович спасают галактику: Перезагрузка / Red Comrades Save the Galaxy: Reloaded (2016) PC | Steam-Rip от Let'sPlay достали все 2.83 GB
Отечественные мультфильмы Рассказы А.П.Чехова -4 серии (Беззаконие, Сын прокурора спасает короля, Человек в пенсне, Белолобый) (Наталья Мальгина, Оксана Холодова, Павел Сухих, Сергей Серегин) [2010, Россия, Ри... TorrentFilm 309 MB
Отечественные cериалы Спасайся, брат (1-4 серия из 4) (Антон Сиверс) [2015 г., боевик, SATRip] достали все 2.27 GB
Зарубежные мультфильмы Спасатели / Saving Goola (Карл Тордж) [2014, мультфильм, приключения] WEB-DLRip| iTunes BOSS 1.37 GB
Зарубежные мультсериалы Трансформеры: Боты-спасатели / Transformers: Rescue Bots [S01] (2011-2012) WEB-DLRip-AVC | D Russian Mafia 9.22 GB
Показать сообщения:    

Текущее время: Сегодня 08:03

Часовой пояс: GMT



Вы не можете начинать темы
Вы не можете отвечать на сообщения
Вы не можете редактировать свои сообщения
Вы не можете удалять свои сообщения
Вы не можете голосовать в опросах
Вы не можете прикреплять файлы к сообщениям
Вы не можете скачивать файлы