Спарта (Николай Кудряшов) [2016, Боевик, Драма, WEB-DLRip] iTunes

 
Автор Сообщение

Russian Mafia ®

Пол:

Стаж: 1 год 8 месяцев

Сообщений: 4256



Награды: 10 (Подробнее)

Top Releaser 5 (Количество: 1) Mega Seeder 4 (Количество: 1) Mega Seeder 1 (Количество: 1)
Торрент-статистика

Создавать темы 22-Сен-2016 19:51

[Цитировать]

Производство: Россия / Арго Фильм
Жанр: Боевик, Драма
Продолжительность: 01:22:45
Перевод: Не требуется (русский) iTunes
Режиссер: Николай Кудряшов
Актеры: Николай Кудряшов, Денис Никифоров, Ян Цапник, Владимир Епифанцев, Максим Коновалов, Андрей Семенов, Михаил Малютин, Александр Шлеменко, Наталия Власова
Описание:
Прямоугольный ринг и две команды бойцов друг напротив друга. Когда силы кончаются, товарища сменяет тот, кто за спиной... Это - Спарта! Новый зрелищный вид единоборств. «Спарта» для бывшего чемпиона по боям без правил Николая - единственная возможность вернуться в большой спорт и решить все проблемы, которые свалились на него три года назад: драка за честь подруги и тюрьма, предательство возлюбленной и отказ тренера в возвращении в команду. Вместе с верными друзьями спортсмен готов бросить вызов всему миру, и ставкой в бои станет его будущая жизнь.

Качество видео: WEB-DLRip Сэмпл
Формат: AVI
Видео: Xvid, 720x304, ~1971 kbps
Аудио: AC3, 6 ch, 384 kbps

MI

Общее
Полное имя : Sparta.2016.WEB-DLRip.1400MB.nnmclub.avi
Формат : AVI
Формат/Информация : Audio Video Interleave
Размер файла : 1,37 Гбайт
Продолжительность : 1 ч. 22 м.
Общий поток : 2365 Кбит/сек
Программа кодирования : VirtualDubMod 1.5.10.2 (build 2540/release)
Библиотека кодирования : VirtualDubMod build 2540/release
Видео
Идентификатор : 0
Формат : MPEG-4 Visual
Профиль формата : Advanced Simple@L5
Параметр BVOP формата : 2
Параметр QPel формата : Нет
Параметр GMC формата : Без точки перехода
Параметр матрицы формата : Default (MPEG)
Идентификатор кодека : XVID
Идентификатор кодека/Подсказка : XviD
Продолжительность : 1 ч. 22 м.
Битрейт : 1971 Кбит/сек
Ширина : 720 пикселей
Высота : 304 пикселя
Соотношение сторон : 2,35:1
Частота кадров : 25,000 кадров/сек
Цветовое пространство : YUV
Субдискретизация насыщенности : 4:2:0
Битовая глубина : 8 бит
Тип развёртки : Прогрессивная
Метод сжатия : С потерями
Бит/(Пиксели*Кадры) : 0.360
Размер потока : 1,14 Гбайт (83%)
Библиотека кодирования : XviD 1.2.1 (UTC 2008-12-04)
Аудио
Идентификатор : 1
Формат : AC-3
Формат/Информация : Audio Coding 3
Расширение режима : CM (complete main)
Параметр Endianness формата : Big
Идентификатор кодека : 2000
Продолжительность : 1 ч. 22 м.
Вид битрейта : Постоянный
Битрейт : 384 Кбит/сек
Каналы : 6 каналов
Расположение каналов : Front: L C R, Side: L R, LFE
Частота : 48,0 КГц
Частота кадров : 31,250 кадров/сек (1536 spf)
Метод сжатия : С потерями
Размер потока : 227 Мбайт (16%)
Выравнивание : Разделение по промежуткам
Продолжительность промежутка : 40 мс. (1,00 видеокадр)
Время предзагрузки промежутка : 500 мс.

Скриншоты

[Профиль] [ЛС]
Кто просматривает тему:

Форум Тема Автор Размер
Фильмы 2011 года 300 спартанцев / 300 (Зак Снайдер / Zack Snyder) [2006, США, боевик, фэнтези, военный, комикс, SATRip] [Open Matte] Dub TorrentFilm 1.45 GB
Фильмы 2011 года 300 спартанцев / 300 (Зак Снайдер / Zack Snyder) [2006, США, Фэнтези, боевик, военный, BDRip] Dub TorrentFilm 1.46 GB
Фильмы 2011 года 300 спартанцев / 300 (Зак Снайдер / Zack Snyder) [2007, США, боевик, фэнтези, военный, комикс, BDRip] Dub + Original + subs (Rus, Eng, Eng SDH, Ukr) painkiller 2.18 GB
Фильмы (Дилогии, трилогии и т.д.) 300 спартанцев: Дилогия / 300: Dilogy (2006-2014) BDRip Russian Mafia 4.36 GB
Фильмы (Дилогии, трилогии и т.д.) 300 спартанцев: Дилогия / 300: Dilogy (2006-2014) BDRip 720p от HELLYWOOD | D, P2, A Russian Mafia 15.21 GB
Фильмы (HD Rips | 720p, 1080p) 300 спартанцев: Расцвет империи / 300: Rise of an Empire (2014) BDRip 720p | Лицензия sergej644 2.9 GB
Фильмы 2014 года 300 спартанцев: Расцвет империи / 300: Rise of an Empire (Ноам Мурро / Noam Murro) [2014, США, боевик, драма, WEB-DLRip] Dub bot 745 MB
Фильмы (HD Rips | 720p, 1080p) 300 спартанцев: Расцвет империи / 300: Rise of an Empire (Ноам Мурро / Noam Murro) [2014, США, боевик, драма, военный, BDRemux 1080p] Dub + VO (Есарев) + Sub (Rus, Ukr, Eng) + Original Eng + Ukr bot 28.25 GB
Показать сообщения:    

Текущее время: Сегодня 02:26

Часовой пояс: GMT



Вы не можете начинать темы
Вы не можете отвечать на сообщения
Вы не можете редактировать свои сообщения
Вы не можете удалять свои сообщения
Вы не можете голосовать в опросах
Вы не можете прикреплять файлы к сообщениям
Вы не можете скачивать файлы