Спавин / Cut Her Out (Spavine) (2014) WEB-DL 720p | L1

 
Автор Сообщение

BOSS ®

Пол:

Стаж: 3 года 2 месяца

Сообщений: 8560

Откуда: ODESSA



Награды: 22 (Подробнее)

Mega Seeder 3 (Количество: 1) Mega Releaser 1 (Количество: 1) Mega Releaser 3 (Количество: 1)
Торрент-статистика

Создавать темы 30-Июл-2017 17:49

[Цитировать]

Производство: США, Mulberry Stains Productions
Жанр: Триллер, ужасы
Режиссер: Тиффани Хит
Актеры: Дентон Блэйн Эверетт, Натали Джонс, Тиффани Хит
Описание:Доктор без спроса увозит пациентку из больницы, которая страдает глюками, корни которых ведут в детство, когда над ней издевалась мать. Приехав в особняк, оставшийся пациентке в наследство, они обнаруживают мальчика, которые молчит и рисует непонятные картинки. Теперь доктор, с помощью гипноза, пытается понять,что случилось с пациенткой, а так же понять, откуда там взялся мальчик.

Продолжительность: 01:27:05
Качество видео: WEB-DL 720
Перевод: Любительский, одноголосый [Хихикающий доктор]

Отзыв с imdb

Гуглоперевод
CUT OUT HER дешевый фильм выстрел на видео , которое выступает в качестве открытой копии голливудских ужасов Флик МАМЫ. Это показывает молодую женщину нарушенной ее травматическое детство , который решает вернуться к своему детству домой со своим психиатром, который также просто так случается , чтобы быть ее любовником. Пара вскоре обнаруживают , что дом в настоящее время занимает, казалось бы , диком ребенка с секретами своего.
Ничего об этом фильме не очень хорошо, дешевизна проявляется в одном месте установки и общее отсутствие акцента на элементах , которые имеют значение. Фильм страдает от плохого качества звука и бормотания со стороны актеров (особенно парень) , что делает его трудно услышать , что происходит. Это не очень интересно, в целом.
Видео: AVC/H.264, 1280x536, ~3837 Kbps
Аудио 1: Русский (АС3, 2 ch, 192 Кбит/с)
Аудио 2: Английский (AC3, 2 ch, 192 Кбит/с)
Семпл

Mediainfo:

Общее
Уникальный идентификатор : 171254150887281682900106189499253850721 (0x80D65987DE664A54B40EC24018B70261)
Полное имя : E:MMMMCut.Her.Out.2014.720p.WEB-DL.H264.mkv
Формат : Matroska
Версия формата : Version 4 / Version 2
Размер файла : 2,62 Гбайт
Продолжительность : 1 ч. 27 м.
Общий поток : 4307 Кбит/сек
Название фильма : Cut.Her.Out.2014.720p.WEB-DL
Дата кодирования : UTC 2017-07-29 12:03:41
Программа кодирования : mkvmerge v6.9.1 ('Blue Panther') 64bit built on Apr 18 2014 18:23:38
Библиотека кодирования : libebml v1.3.0 + libmatroska v1.4.1
Обложка : Yes
Attachments : cover_land.jpg / small_cover.jpg / small_cover_land.jpg / cover.jpg
Видео
Идентификатор : 1
Формат : AVC
Формат/Информация : Advanced Video Codec
Профиль формата : Main@L3.1
Параметр CABAC формата : Нет
Параметр ReFrames формата : 2 кадра
Идентификатор кодека : V_MPEG4/ISO/AVC
Продолжительность : 1 ч. 27 м.
Битрейт : 3837 Кбит/сек
Ширина : 1280 пикселей
Высота : 536 пикселей
Соотношение сторон : 2,40:1
Режим частоты кадров : Постоянный
Частота кадров : 23,976 кадра/сек
Цветовое пространство : YUV
Субдискретизация насыщенности : 4:2:0
Битовая глубина : 8 бит
Тип развёртки : Прогрессивная
Бит/(Пиксели*Кадры) : 0.233
Размер потока : 2,33 Гбайт (89%)
Заголовок : Cut.Her.Out.2014.720p
Язык : English
Default : Да
Forced : Нет
Цветовой диапазон : Limited
Основные цвета : BT.709
Характеристики трансфера : BT.709
Коэффициенты матрицы : BT.709
Аудио #1
Идентификатор : 2
Формат : AC-3
Формат/Информация : Audio Coding 3
Расширение режима : CM (complete main)
Параметр Endianness формата : Big
Идентификатор кодека : A_AC3
Продолжительность : 1 ч. 27 м.
Вид битрейта : Постоянный
Битрейт : 192 Кбит/сек
Каналы : 2 канала
Расположение каналов : Front: L R
Частота : 48,0 КГц
Частота кадров : 31,250 кадров/сек (1536 spf)
Метод сжатия : С потерями
Размер потока : 120 Мбайт (4%)
Заголовок : xixidoktor
Язык : Russian
Default : Да
Forced : Нет
Аудио #2
Идентификатор : 3
Формат : AC-3
Формат/Информация : Audio Coding 3
Расширение режима : CM (complete main)
Параметр Endianness формата : Big
Идентификатор кодека : A_AC3
Продолжительность : 1 ч. 27 м.
Вид битрейта : Постоянный
Битрейт : 192 Кбит/сек
Каналы : 2 канала
Расположение каналов : Front: L R
Частота : 48,0 КГц
Частота кадров : 31,250 кадров/сек (1536 spf)
Метод сжатия : С потерями
Размер потока : 120 Мбайт (4%)
Заголовок : original
Язык : English
Default : Нет
Forced : Нет
Меню
00:00:00.000 : en:1
00:07:00.000 : en:2
00:18:19.000 : en:3
00:28:29.000 : en:4
00:39:25.000 : en:5
00:50:44.000 : en:6
01:00:51.000 : en:7
01:11:01.000 : en:8
01:26:21.000 : en:9

Скриншоты:


[Профиль] [ЛС]
Кто просматривает тему:

Показать сообщения:    

Текущее время: Сегодня 13:11

Часовой пояс: GMT



Вы не можете начинать темы
Вы не можете отвечать на сообщения
Вы не можете редактировать свои сообщения
Вы не можете удалять свои сообщения
Вы не можете голосовать в опросах
Вы не можете прикреплять файлы к сообщениям
Вы не можете скачивать файлы