Социальная сеть / The Social Network (Дэвид Финчер / David Fincher) [2010, США, драма, биография, BDRip] AVO (Сергей Визгунов)

 
Автор Сообщение

TorrentFilm ®

Пол:

Стаж: 1 год 11 месяцев

Сообщений: 7741



Награды: Нет

Торрент-статистика

Создавать темы 15-Июн-2015 00:04

[Цитировать]

Социальная сеть / The Social Network- Страна: США
Жанр: драма, биография
Год выпуска: 2010
Продолжительность: 02:00:27-Перевод: Авторский (одноголосый закадровый) Сергей Визгунов
Cубтитры: нет-Режиссер: Дэвид Финчер / David Fincher
В ролях: Айзенберг, Джастин Тимберлэйк, Эндрю Гарфилд, Рашида Джонс, Джон Гец, Кристофер Кай, Руни Мара, Джозеф Мадзелло, Кристен Клемент, Дэрин Купер, Сюзанн Инглэнд-Описание: В фильме рассказывается история создания одной из самых популярных в Интернете социальных сетей — Facebook. Оглушительный успех этой сети среди пользователей по всему миру навсегда изменил жизнь студентов-однокурсников гарвардского университета, которые основали ее в 2004 году и за несколько лет стали самыми молодыми мультимиллионерами в США.-Сэмпл-Качество видео: BDRip
Формат видео: AVI
Видео: 720x304 (2.37:1), 23.976 fps, XviD MPEG-4 ~1340 kbps avg, 0.26 bit/pixel
Аудио: 48 kHz, AC3 Dolby Digital, 3/2 (L,C,R,l,r) + LFE ch, ~384 kbps

MediaInfo

General
Complete name : E:\Downloads\SocSet.Vizgunov.avi
Format : AVI
Format/Info : Audio Video Interleave
File size : 1.46 GiB
Duration : 2h 0mn
Overall bit rate : 1 734 Kbps
Writing application : VirtualDubMod 1.5.10.2 (build 2540/release)
Writing library : VirtualDubMod build 2540/release
Video
ID : 0
Format : MPEG-4 Visual
Format profile : Advanced Simple@L5
Format settings, BVOP : 1
Format settings, QPel : No
Format settings, GMC : No warppoints
Format settings, Matrix : Custom
Codec ID : XVID
Codec ID/Hint : XviD
Duration : 2h 0mn
Bit rate : 1 340 Kbps
Width : 720 pixels
Height : 304 pixels
Display aspect ratio : 2.35:1
Frame rate : 23.976 fps
Color space : YUV
Chroma subsampling : 4:2:0
Bit depth : 8 bits
Scan type : Progressive
Compression mode : Lossy
Bits/(Pixel*Frame) : 0.255
Stream size : 1.13 GiB (77%)
Writing library : XviD 64
Audio
ID : 1
Format : AC-3
Format/Info : Audio Coding 3
Mode extension : CM (complete main)
Format settings, Endianness : Big
Codec ID : 2000
Duration : 2h 0mn
Bit rate mode : Constant
Bit rate : 384 Kbps
Channel(s) : 6 channels
Channel positions : Front: L C R, Side: L R, LFE
Sampling rate : 48.0 KHz
Bit depth : 16 bits
Compression mode : Lossy
Stream size : 331 MiB (22%)
Alignment : Split accross interleaves
Interleave, duration : 42 ms (1.00 video frame)
Interleave, preload duration : 500 ms

Скриншот c названием фильма

Скриншоты

[Профиль] [ЛС]

Создавать темы 06-Авг-2015 22:29 (спустя 1 месяц 21 день)

Топик был перенесен из форума Фильмы до 2014 года в форум Фильмы до 2012 года
sergej644
 

Создавать темы 12-Июн-2016 07:55 (спустя 11 месяцев)

Топик был перенесен из форума Фильмы 2011 года в форум Фильмы 2010 года
Russian Mafia
 
Кто просматривает тему:

Форум Тема Автор Размер
Apple Mac OS X (ОС и ПО) Vk App / Вк [2.0, Социальные сети, iOS 5.0, RUS] reversefile 7 MB
Apple Mac OS X (ОС и ПО) [HD] Vk app / Вк [1.7, Социальные сети, iOS 5.0, RUS] reversefile 17 MB
Apple Mac OS X (ОС и ПО) [SD] Vk app [2.1, Социальные сети, iOS 5.0, RUS] reversefile 10 MB
Фильмы (DVD 5/9) Бабы рязанские (Ольга Преображенская, Иван Правов) [1927, СССР, социальная драма, DVD5 (Custom)] [Немое кино] интертитры Fr Sub Rus TorrentFilm 3.31 GB
Разная литература Бен Элтон - Сборник произведений (12 книг) [1981-2016, Современная проза, Социальная фантастика, Триллер, Юмор, FB2] Garik014 13 MB
Фантастика, фэнтези Владимир Савченко - Сборник произведений (62 книги) [1956-2016, Социальная фантастика, Научная фантастика, Юмористическая фантастика, FB2] Garik014 59 MB
Фильмы (HD Rips | 720p, 1080p) Город Зеро (Карен Шахназаров) [1988, СССР, социальная драма, Blu-ray disc] [Полная реставрация ] TorrentFilm 22.92 GB
Фильмы (HD Rips | 720p, 1080p) Город Зеро (Карен Шахназаров) [1988, СССР, Фантасмагория, мистика, социальная драма, BDRip 1080p] TorrentFilm 8.97 GB
Показать сообщения:    

Текущее время: Сегодня 00:35

Часовой пояс: GMT



Вы не можете начинать темы
Вы не можете отвечать на сообщения
Вы не можете редактировать свои сообщения
Вы не можете удалять свои сообщения
Вы не можете голосовать в опросах
Вы не можете прикреплять файлы к сообщениям
Вы не можете скачивать файлы