Социальная сеть / The Social Network (Дэвид Финчер)[2010, драма, биография, BDRip] 1080p [DUB] + O

 
Автор Сообщение

sergej644 ®

Пол:

Стаж: 4 года 11 месяцев

Сообщений: 6037

Откуда: Soviet Union



Награды: Нет

Торрент-статистика

Создавать темы 19-Окт-2014 13:44

[Цитировать]

--Социальная сеть / The Social Network
Информация о фильме
Название: Социальная сеть
Оригинальное название: The Social Network
Год выхода: 2010
Жанр: драма, биография
Режиссер: Дэвид Финчер
В ролях: Джесси Айзенберг, Эндрю Гарфилд, Джастин Тимберлэйк, Эрми Хаммер, Макс Мингелла, Руни Мара, Брайан Бартер, Дастин Фицсаймонс, Джозеф Маццелло, Патрик Мэпл
О фильме:
В фильме рассказывается история создания одной из самых популярных в Интернете социальных сетей — Facebook. Оглушительный успех этой сети среди пользователей по всему миру навсегда изменил жизнь студентов-однокурсников гарвардского университета, которые основали ее в 2004 году и за несколько лет стали самыми молодыми мультимиллионерами в США.-
Выпущено: США
Продолжительность: 02:00:27
Перевод: Дублированный + Оригинал
Файл
Кодек: x264
Качество: BDRip 1080p
Видео: 1920x800, 7946 Kbps, 23.976 fps
Аудио #1: AC-3, 6 ch, 640 kbps (Rus)
Аудио #2: AC-3, 6 ch, 640 kbps (Eng)
Субтитры: русские, английские

Скриншоты

MI

Общее
Уникальный идентификатор                 : 216112612800307760751650213969908647072 (0xA295C675D031DCF3BE792FCC2CC2C4A0)
Полное имя                               : Социальная сеть.2010.BDRip.1080p.Rus.Eng.mkv
Формат                                   : Matroska
Версия формата                           : Version 2
Размер файла                             : 7,76 Гбайт
Продолжительность                        : 2 ч. 0 м.
Общий поток                              : 9229 Кбит/сек
Название фильма                          : Социальная сеть.2010
Дата кодирования                         : UTC 2013-08-15 16:29:35
Программа кодирования                    : mkvmerge v5.8.0 ('No Sleep / Pillow') built on Sep  2 2012 15:37:04
Библиотека кодирования                   : libebml v1.2.3 + libmatroska v1.3.0
Видео
Идентификатор                            : 1
Формат                                   : AVC
Формат/Информация                        : Advanced Video Codec
Профиль формата                          : High@L4.1
Параметр CABAC формата                   : Да
Параметр ReFrames формата                : 5 кадров
Идентификатор кодека                     : V_MPEG4/ISO/AVC
Продолжительность                        : 2 ч. 0 м.
Битрейт                                  : 7946 Кбит/сек
Ширина                                   : 1920 пикселей
Высота                                   : 800 пикселей
Соотношение сторон                       : 2,40:1
Режим частоты кадров                     : Постоянный
Частота кадров                           : 23,976 кадра/сек
Цветовое пространство                    : YUV
Субдискретизация насыщенности            : 4:2:0
Битовая глубина                          : 8 бит
Тип развёртки                            : Прогрессивная
Бит/(Пиксели*Кадры)                      : 0.216
Размер потока                            : 6,53 Гбайт (84%)
Заголовок                                : Rip by Boriy
Библиотека кодирования                   : x264 core 135 r2345 f0c1c53
Настройки программы                      : cabac=1 / ref=5 / deblock=1:-3:-3 / analyse=0x3:0x113 / me=umh / subme=11 / psy=1 / psy_rd=1.00:0.00 / mixed_ref=1 / me_range=32 / chroma_me=1 / trellis=2 / 8x8dct=1 / cqm=0 / deadzone=21,11 / fast_pskip=0 / chroma_qp_offset=-2 / threads=12 / lookahead_threads=1 / sliced_threads=0 / nr=0 / decimate=0 / interlaced=0 / bluray_compat=0 / constrained_intra=0 / bframes=6 / b_pyramid=2 / b_adapt=2 / b_bias=0 / direct=3 / weightb=1 / open_gop=0 / weightp=2 / keyint=240 / keyint_min=23 / scenecut=40 / intra_refresh=0 / rc=2pass / mbtree=0 / bitrate=7946 / ratetol=1.0 / qcomp=0.60 / qpmin=0 / qpmax=69 / qpstep=4 / cplxblur=20.0 / qblur=0.5 / ip_ratio=1.40 / pb_ratio=1.30 / aq=1:0.80
Язык                                     : English
Default                                  : Да
Forced                                   : Нет
Аудио #1
Идентификатор                            : 2
Формат                                   : AC-3
Формат/Информация                        : Audio Coding 3
Расширение режима                        : CM (complete main)
Параметр Endianness формата              : Big
Идентификатор кодека                     : A_AC3
Продолжительность                        : 2 ч. 0 м.
Вид битрейта                             : Постоянный
Битрейт                                  : 640 Кбит/сек
Каналы                                   : 6 каналов
Расположение каналов                     : Front: L C R, Side: L R, LFE
Частота                                  : 48,0 КГц
Битовая глубина                          : 16 бит
Метод сжатия                             : С потерями
Размер потока                            : 551 Мбайт (7%)
Заголовок                                : Дубляж
Язык                                     : Russian
Default                                  : Да
Forced                                   : Нет
Аудио #2
Идентификатор                            : 3
Формат                                   : AC-3
Формат/Информация                        : Audio Coding 3
Расширение режима                        : CM (complete main)
Параметр Endianness формата              : Big
Идентификатор кодека                     : A_AC3
Продолжительность                        : 2 ч. 0 м.
Вид битрейта                             : Постоянный
Битрейт                                  : 640 Кбит/сек
Каналы                                   : 6 каналов
Расположение каналов                     : Front: L C R, Side: L R, LFE
Частота                                  : 48,0 КГц
Битовая глубина                          : 16 бит
Метод сжатия                             : С потерями
Размер потока                            : 551 Мбайт (7%)
Заголовок                                : Оригинал
Язык                                     : English
Default                                  : Нет
Forced                                   : Нет
Текст #1
Идентификатор                            : 4
Формат                                   : UTF-8
Идентификатор кодека                     : S_TEXT/UTF8
Идентификатор кодека/Информация          : UTF-8 Plain Text
Заголовок                                : Forced
Язык                                     : Russian
Default                                  : Да
Forced                                   : Да
Текст #2
Идентификатор                            : 5
Формат                                   : UTF-8
Идентификатор кодека                     : S_TEXT/UTF8
Идентификатор кодека/Информация          : UTF-8 Plain Text
Заголовок                                : Full
Язык                                     : Russian
Default                                  : Нет
Forced                                   : Нет
Текст #3
Идентификатор                            : 6
Формат                                   : UTF-8
Идентификатор кодека                     : S_TEXT/UTF8
Идентификатор кодека/Информация          : UTF-8 Plain Text
Заголовок                                : Full
Язык                                     : English
Default                                  : Нет
Forced                                   : Нет
Меню
00:00:00.000                             : :Chapter 1
00:07:33.411                             : :Chapter 2
00:17:15.409                             : :Chapter 3
00:24:20.000                             : :Chapter 4
00:31:07.115                             : :Chapter 5
00:34:47.502                             : :Chapter 6
00:44:27.164                             : :Chapter 7
00:50:54.301                             : :Chapter 8
00:55:39.252                             : :Chapter 9
01:00:15.612                             : :Chapter 10
01:11:41.130                             : :Chapter 11
01:18:29.496                             : :Chapter 12
01:24:22.474                             : :Chapter 13
01:33:16.966                             : :Chapter 14
01:38:04.086                             : :Chapter 15
01:47:09.714                             : :Chapter 16
--
[Профиль] [ЛС]
Кто просматривает тему:

Форум Тема Автор Размер
Apple Mac OS X (ОС и ПО) Vk App / Вк [2.0, Социальные сети, iOS 5.0, RUS] reversefile 7 MB
Apple Mac OS X (ОС и ПО) [HD] Vk app / Вк [1.7, Социальные сети, iOS 5.0, RUS] reversefile 17 MB
Apple Mac OS X (ОС и ПО) [SD] Vk app [2.1, Социальные сети, iOS 5.0, RUS] reversefile 10 MB
Фильмы (DVD 5/9) Бабы рязанские (Ольга Преображенская, Иван Правов) [1927, СССР, социальная драма, DVD5 (Custom)] [Немое кино] интертитры Fr Sub Rus TorrentFilm 3.31 GB
Разная литература Бен Элтон - Сборник произведений (12 книг) [1981-2016, Современная проза, Социальная фантастика, Триллер, Юмор, FB2] Garik014 13 MB
Фантастика, фэнтези Владимир Савченко - Сборник произведений (62 книги) [1956-2016, Социальная фантастика, Научная фантастика, Юмористическая фантастика, FB2] Garik014 59 MB
Фильмы (HD Rips | 720p, 1080p) Город Зеро (Карен Шахназаров) [1988, СССР, социальная драма, Blu-ray disc] [Полная реставрация ] TorrentFilm 22.92 GB
Фильмы (HD Rips | 720p, 1080p) Город Зеро (Карен Шахназаров) [1988, СССР, Фантасмагория, мистика, социальная драма, BDRip 1080p] TorrentFilm 8.97 GB
Показать сообщения:    

Текущее время: Сегодня 15:57

Часовой пояс: GMT



Вы не можете начинать темы
Вы не можете отвечать на сообщения
Вы не можете редактировать свои сообщения
Вы не можете удалять свои сообщения
Вы не можете голосовать в опросах
Вы не можете прикреплять файлы к сообщениям
Вы не можете скачивать файлы