Сохранить мир – наша обязанность / Dem Frieden verpflichtet (Райнер Бахманн / Reiner Bachmann, Матиас Блохвиц / Mathias Blochwitz) [1981, документальный, VHSRip]

 
Author Message

Один 777 ®

Gender:

Longevity: 4 years 3 months

Posts: 506

Location: Луцк



: 7 ()

За внесенный вклад в развитие сайта (1) Mega Releaser 2 (1) Mega Seeder 1 (1)
Торрент-статистика

Post 17-Feb-2019 06:56

[Quote]

Сохранить мир – наша обязанность / Dem Frieden verpflichtet
Год выпуска: 1981
Страна: ГДР
Жанр: документальный
Продолжительность: 00:58:13
Перевод: Одноголосый закадровый (Ростислав Ганичев)
Доп. инфо о переводе: Ростислав Ганичев
Русские субтитры: нет
Режиссер: Райнер Бахманн / Reiner Bachmann, Матиас Блохвиц / Mathias Blochwitz
Описание: В 1980 году исполнилось 25 лет со дня основания Организации Варшавского Договора.
В честь юбилея на территории ГДР были организованы грандиозные международные учения «Waffenbrüderschaft-80» (Братство по оружию-80). Выступление руководства ГДР на торжественной церемонии открытия маневров в Потсдаме, основные этапы учений, рассказ об отдельных военнослужащих Венгрии, Румынии, ГДР, Чехословакии, Болгарии, Польши и СССР и завершающий торжественный парад. Сценарий учений: отражение агрессии на Германскую Демократическую Республику – противодействие сухопутным силам и подразделениям морского десанта противника, переход в контрнаступление и высадка десанта на вражеском берегу.
В фильм включены речи генерального секретаря ГДР Эриха Хоннекера, министра обороны генерал-полковника Хайнца Кесслера и члена Национального совета обороны генерала армии Хайнца Хоффманна.
Сэмпл: http://sendfile.su/1476013

качество: VHSRip
формат: AVI
Видео: 640x480 (1.33:1), 25 fps, XviD MPEG-4 ~1540 kbps avg, 0.20 bit/pixel
Аудио: 48 kHz, MPEG Layer 3, 2 ch, ~128.00 kbps avg

MediaInfo

Общее
Полное имя : D:\Dem Frieden verpflichtet_1981_VHSRip.avi
Формат : AVI
Формат/Информация : Audio Video Interleave
Размер файла : 699 Мбайт
Продолжительность : 58 м.
Общий поток : 1678 Кбит/сек
Программа кодирования : VirtualDubMod 1.5.10.3 | www.virtualdub-fr.org || (build 2550/release)
Библиотека кодирования : VirtualDubMod build 2550/release
Видео
Идентификатор : 0
Формат : MPEG-4 Visual
Профиль формата : Simple@L1
Параметр BVOP формата : Нет
Параметр QPel формата : Нет
Параметр GMC формата : Без точки перехода
Параметр матрицы формата : Default (H.263)
Идентификатор кодека : XVID
Идентификатор кодека/Подсказка : XviD
Продолжительность : 58 м.
Битрейт : 1540 Кбит/сек
Ширина : 640 пикселей
Высота : 480 пикселей
Соотношение сторон : 4:3
Частота кадров : 25,000 кадров/сек
Цветовое пространство : YUV
Субдискретизация насыщенности : 4:2:0
Битовая глубина : 8 бит
Тип развёртки : Прогрессивная
Метод сжатия : С потерями
Бит/(Пиксели*Кадры) : 0.201
Размер потока : 641 Мбайт (92%)
Библиотека кодирования : Lavc53.33.0
Аудио
Идентификатор : 1
Формат : MPEG Audio
Версия формата : Version 1
Профиль формата : Layer 3
Идентификатор кодека : 55
Идентификатор кодека/Подсказка : MP3
Продолжительность : 58 м.
Вид битрейта : Постоянный
Битрейт : 128 Кбит/сек
Каналы : 2 канала
Частота : 48,0 КГц
Метод сжатия : С потерями
Размер потока : 53,3 Мбайт (8%)
Выравнивание : Соединение по промежуткам
Продолжительность промежутка : 40 мс. (1,00 видеокадр)
Время предзагрузки промежутка : 504 мс.
Библиотека кодирования : LAME3.99r
Настройки программы : -m s -V 4 -q 2 -lowpass 17 -b 128

Скриншоты

[Profile] [PM]
Display posts from previous:    

The time now is: Today 12:02

All times are GMT



You cannot post new topics in this forum
You cannot reply to topics in this forum
You cannot edit your posts in this forum
You cannot delete your posts in this forum
You cannot vote in polls in this forum
You cannot attach files in this forum
You cannot download files in this forum