Софья Грушко (Виктор Ивченко) [1972, Драма, военный, DVDRip-AVC]

 
Автор Сообщение

reversefile ®

Пол:

Стаж: 4 года 5 месяцев

Сообщений: 842

Откуда: ReverseFile.org



Награды: Нет

Торрент-статистика

Создавать темы 25-Июл-2014 01:16

[Цитировать]

Софья Грушко
Жанр: Драма,военный
Год выпуска: 1972
Продолжительность: 01:35:29
Режиссёр: Виктор Ивченко
В ролях: Нинель Мышкова, Владимир Волков, Степан Олексенко, В.Гончаров Валерий Панарин, Лариса Хоролец, Елена Аминова, Борислав Брондуков, Светлана Кондратова, Н.Козленко
Описание: Во время Великой Отечественной войны, ведя подпольную работу в оккупированном Киеве, медсестра Софья Грушко вынуждена пойти на службу к фашистам, стрелять в пленного советского офицера Семена Лихолая, которого потом сама же спасла и выходила после ранения.
Спустя много лет они встретились в доме Софьи, и Семен, не зная всей правды, рассказал ее взрослым дочерям, что их мать — предатель. А Софья не может опровергнуть страшное обвинение, т. к. продолжает выполнять задание советской разведки. Она ждет связного от фашиста «завербовавшего» ее в гестапо…
Семпл: http://multi-up.com/986994
Качество видео: DVDRip
Формат видео: MKV
Видео: AVC, 704x474@753x424, 16:9, 25,000 кадров/сек, 2000 Кбит/сек
Аудио: русский,AAC-LC, 48,0 КГц, 192 Кбит/сек, 2 ch

MediaInfo

Общее
Полное имя : E:\Софья Грушко (1972) DVDRip.mkv
Формат : MPEG-4
Профиль формата : Base Media / Version 2
Идентификатор кодека : mp42
Размер файла : 1,46 Гбайт
Продолжительность : 1 ч. 35 м.
Режим общего битрейта : Постоянный
Общий поток : 2196 Кбит/сек
Дата кодирования : UTC 2014-07-17 06:15:09
Дата пометки : UTC 2014-07-17 06:15:09
Видео
Идентификатор : 1
Формат : AVC
Формат/Информация : Advanced Video Codec
Профиль формата : Main@L3.0
Параметр CABAC формата : Да
Параметр ReFrames формата : 2 кадра
Параметр GOP формата : M=3, N=30
Идентификатор кодека : avc1
Идентификатор кодека/Информация : Advanced Video Coding
Продолжительность : 1 ч. 35 м.
Вид битрейта : Постоянный
Битрейт : 2000 Кбит/сек
Ширина : 704 пикселя
Высота : 424 пикселя
Соотношение сторон : 16:9
Соотношение сторон в оригинале : 16:9
Режим частоты кадров : Постоянный
Частота кадров : 25,000 кадров/сек
Цветовое пространство : YUV
Субдискретизация насыщенности : 4:2:0
Битовая глубина : 8 бит
Тип развёртки : Прогрессивная
Бит/(Пиксели*Кадры) : 0.268
Размер потока : 1,33 Гбайт (91%)
Язык : English
Дата кодирования : UTC 2014-07-17 06:15:09
Дата пометки : UTC 2014-07-17 06:15:09
Аудио
Идентификатор : 2
Формат : AAC
Формат/Информация : Advanced Audio Codec
Профиль формата : LC
Идентификатор кодека : 40
Продолжительность : 1 ч. 35 м.
Вид битрейта : Постоянный
Битрейт : 192 Кбит/сек
Каналы : 2 канала
Расположение каналов : Front: L R
Частота : 48,0 КГц
Метод сжатия : С потерями
Задержка видео : 40 мс.
Размер потока : 131 Мбайт (9%)
Язык : English
Дата кодирования : UTC 2014-07-17 06:15:09
Дата пометки : UTC 2014-07-17 06:15:09

Скриншоты

[Профиль] [ЛС]

Создавать темы 06-Авг-2015 22:06 (спустя 1 год)

Топик был перенесен из форума Кино СССР в форум Кино СССР
sergej644
 
Показать сообщения:    

Текущее время: Сегодня 00:33

Часовой пояс: GMT



Вы не можете начинать темы
Вы не можете отвечать на сообщения
Вы не можете редактировать свои сообщения
Вы не можете удалять свои сообщения
Вы не можете голосовать в опросах
Вы не можете прикреплять файлы к сообщениям
Вы не можете скачивать файлы