Соучастники (2015) HDTVRip от Шкипер

 
Автор Сообщение

Russian Mafia ®

Пол:

Стаж: 1 год 8 месяцев

Сообщений: 4256



Награды: 10 (Подробнее)

Top Releaser 5 (Количество: 1) Mega Seeder 1 (Количество: 1) Mega Seeder 3 (Количество: 1)
Торрент-статистика

Создавать темы 24-Мар-2016 12:51

[Цитировать]

Информация о фильме
Название: Соучастники
Год выхода: 2015
Жанр: Криминал, мелодрама
Режиссер: Роман Просвирнин
В ролях: Карина Разумовская, Дмитрий Миллер, Сергей Мухин, Елена Чернявская, Константин Соловьёв, Андрей Селиванов, Артём Фадеев, Евгения Каверау, Лариса Домаскина, Артём Банников, Елена Кожейкина
О фильме:
Ольга возвращается из командировки на день раньше и застает своего мужа Эдуарда в постели с учительницей их сына Жанной. После скандала Ольга выбегает из дома и натыкается во дворе на тело учительницы. Причины смерти Жанны неизвестны, но Эдуард уверен в одном: их семье не нужна огласка. Ведь он высокопоставленный чиновник мэрии, а их сын Арсений дружит с дочкой Жанны. Эдуард уговаривает Ольгу вывезти тело в город. Когда его найдут, никто не свяжет смерть женщины с их семьей. Однако, тело бесследно исчезает. И жизнь Эдуарда и Ольги, и без того отягченная изменой, превращается в ад. Весь город ищет Жанну, Ольгу мучают угрызения совести, сын начинает подозревать отца, арестовывают и обвиняют в убийстве невиновного, а тут еще Игорь, влюбленный в Ольгу, шантажирует ее и мужа. Ольга и Эдуард доведены до отчаяния и готовы признаться во всем, они не могут допустить, чтобы пострадал невиновный,… но тут рыбаки обнаруживают тело Жанны.

Страна: Россия
Студия: Кинокомпания Русское
Продолжительность: 01:32:10
Перевод: Не требуется
Файл
Кодек: XviD
Качество: HDTVRip
Видео: 624x352 (1.77:1), 25 fps, XviD build 73 ~992 kbps avg, 0.18 bit/pixel
Звук: 48 kHz, MPEG Layer 3, 2 ch, ~128.00 kbps avg
Субтитры: Отсутствует
Семпл

MI

General
Complete name : D:Изготовление рипаSouchastniki.2015.HDTVRip.by shkiper.avi
Format : AVI
Format/Info : Audio Video Interleave
File size : 745 MiB
Duration : 1h 32mn
Overall bit rate : 1 131 Kbps
Writing application : VirtualDubMod 1.5.10.3 | www.virtualdub-fr.org || (build 2550/release)
Writing library : VirtualDubMod build 2550/release
Video
ID : 0
Format : MPEG-4 Visual
Format profile : Advanced [email protected]/* */
Format settings, BVOP : 1
Format settings, QPel : No
Format settings, GMC : No warppoints
Format settings, Matrix : Custom
Codec ID : XVID
Codec ID/Hint : XviD
Duration : 1h 32mn
Bit rate : 993 Kbps
Width : 624 pixels
Height : 352 pixels
Display aspect ratio : 16:9
Frame rate : 25.000 fps
Color space : YUV
Chroma subsampling : 4:2:0
Bit depth : 8 bits
Scan type : Progressive
Compression mode : Lossy
Bits/(Pixel*Frame) : 0.181
Stream size : 654 MiB (88%)
Writing library : XviD 73
Audio
ID : 1
Format : MPEG Audio
Format version : Version 1
Format profile : Layer 3
Codec ID : 55
Codec ID/Hint : MP3
Duration : 1h 32mn
Bit rate mode : Constant
Bit rate : 128 Kbps
Channel(s) : 2 channels
Sampling rate : 48.0 KHz
Compression mode : Lossy
Stream size : 84.4 MiB (11%)
Alignment : Aligned on interleaves
Interleave, duration : 40 ms (1.00 video frame)
Interleave, preload duratio : 504 ms
Writing library : LAME3.99r
Encoding settings : -m s -V 4 -q 2 -lowpass 17 -b 128

Скриншоты

Релиз от:
[Профиль] [ЛС]
Показать сообщения:    

Текущее время: Сегодня 08:55

Часовой пояс: GMT



Вы не можете начинать темы
Вы не можете отвечать на сообщения
Вы не можете редактировать свои сообщения
Вы не можете удалять свои сообщения
Вы не можете голосовать в опросах
Вы не можете прикреплять файлы к сообщениям
Вы не можете скачивать файлы