Сотовый / Cellular (2004) BDRip [720p]

 
Автор Сообщение

sergej644 ®

Пол:

Стаж: 4 года 11 месяцев

Сообщений: 6042

Откуда: Soviet Union



Награды: Нет

Торрент-статистика

Создавать темы 12-Окт-2014 05:52

[Цитировать]

-Сотовый / Cellular (2004) BDRip«Когда связь имеет значение»- Год выпуска: 2004
Производство: США, Германия
Жанр: боевик, криминал, триллер
Режиссер: Дэвид Р. Эллис
Актеры: Ким Бейсингер, Крис Эванс, Джейсон Стэйтем, Уильям Х. Мэйси, Ноа Эммерик, Адам Тейлор Гордон, Ричард Берджи, Валери Крус, Джессика Бил, Эрик Этебари
Описание фильма:
Джессику похищают и запирают на чердаке. Вся её надежда на неисправный, едва работающий телефон. Позвонив по первому попавшемуся номеру, она сообщает Райану (случайному молодому человеку) о своем похищении и о том, что её хотят убить, а также и её мужа и сына, за которыми теперь отправились похитители.
Она не знает, где находится, а у единственного возможного спасителя скоро сядет батарейка телефона. Теперь Райану, знакомому с Джессикой только по ее паническому голосу, придется бороться со временем, которого остается все меньше, и постоянными проблемами со связью и лицом столкнуться с убийством и обманом...
Перевод: профессиональный (полное дублирование)
Вид субтитров: вшитые отключаемые
Язык субтитров: русские, английские

Дата мировой премьеры: 10 сентября 2004
Дата российской премьеры: 11 ноября 2004, «Каро-Премьер»
Дата выхода DVD релиза: 13 октября 2011, «CP-Digital»
Продолжительность: 01:33:59
Качество: BDRip (720p)
Видео: MPEG-4 AVC/H.264, 1280 x 720 (16:9), 5 140 kbps, 23,976 fps, 0.233 b/px
Аудио # 1: AC3, 6 ch, 384 kbps, 48 000 Hz [дублированный]
Аудио # 2: DTS, 6 ch, 1 510 kbps, 48 000 Hz [оригинальный]

MediaInfo

Общее
Уникальный идентификатор                 : 222629781790686795737302439566682841528 (0xA77CEFB314B730AF94666FAED9EB61B8)
Полное имя                               : E:\Video\[2004] Сотовый [BDRip - AVC - 1280 x 720].mkv
Формат                                   : Matroska
Версия формата                           : Version 4 / Version 2
Размер файла                             : 4,62 Гбайт
Продолжительность                        : 1 ч. 33 м.
Общий поток                              : 7035 Кбит/сек
Название фильма                          : Сотовый / Cellular (2004) BDRip [720]
Дата кодирования                         : UTC 2014-10-11 15:51:10
Программа кодирования                    : mkvmerge v7.2.0 ('On Every Street') 32bit built on Sep 13 2014 15:42:11
Библиотека кодирования                   : libebml v1.3.0 + libmatroska v1.4.1
DURATION                                 : 01:26:36.400000000
NUMBER_OF_FRAMES                         : 1097
NUMBER_OF_BYTES                          : 35649
_STATISTICS_WRITING_APP                  : mkvmerge v7.2.0 ('On Every Street') 32bit built on Sep 13 2014 15:42:11
_STATISTICS_WRITING_DATE_UTC             : 2014-10-11 15:51:10
_STATISTICS_TAGS                         : BPS DURATION NUMBER_OF_FRAMES NUMBER_OF_BYTES
Видео
Идентификатор                            : 1
Формат                                   : AVC
Формат/Информация                        : Advanced Video Codec
Профиль формата                          : [url=mailto:High@L4.1]High@L4.1[/url]
Параметр CABAC формата                   : Да
Параметр ReFrames формата                : 6 кадров
Параметр GOP формата                     : N=1
Идентификатор кодека                     : V_MPEG4/ISO/AVC
Продолжительность                        : 1 ч. 33 м.
Битрейт                                  : 5140 Кбит/сек
Ширина                                   : 1280 пикселей
Высота                                   : 720 пикселей
Соотношение сторон                       : 16:9
Режим частоты кадров                     : Постоянный
Частота кадров                           : 23,976 кадра/сек
Цветовое пространство                    : YUV
Субдискретизация насыщенности            : 4:2:0
Битовая глубина                          : 8 бит
Тип развёртки                            : Прогрессивная
Бит/(Пиксели*Кадры)                      : 0.233
Размер потока                            : 3,28 Гбайт (71%)
Заголовок                                : [2004] Cellular [BDRip - AVC - 1280 x 720]
Библиотека кодирования                   : x264 core 67 r1145M d2e1e1c
Настройки программы                      : cabac=1 / ref=6 / deblock=1:-3:-3 / analyse=0x3:0x113 / me=umh / subme=9 / psy_rd=1.2:0.0 / mixed_ref=1 / me_range=32 / chroma_me=1 / trellis=2 / 8x8dct=1 / cqm=0 / deadzone=21,11 / chroma_qp_offset=-2 / threads=6 / nr=0 / decimate=1 / mbaff=0 / bframes=16 / b_pyramid=1 / b_adapt=2 / b_bias=0 / direct=3 / wpredb=1 / keyint=250 / keyint_min=25 / scenecut=40 / rc=2pass / bitrate=5140 / ratetol=1.0 / qcomp=0.60 / qpmin=10 / qpmax=51 / qpstep=4 / cplxblur=20.0 / qblur=0.5 / ip_ratio=1.40 / pb_ratio=1.30 / aq=1:0.80
Язык                                     : English
Default                                  : Да
Forced                                   : Нет
DURATION                                 : 01:33:59.723000000
NUMBER_OF_FRAMES                         : 135218
NUMBER_OF_BYTES                          : 3622760666
_STATISTICS_WRITING_APP                  : mkvmerge v7.2.0 ('On Every Street') 32bit built on Sep 13 2014 15:42:11
_STATISTICS_WRITING_DATE_UTC             : 2014-10-11 15:51:10
_STATISTICS_TAGS                         : BPS DURATION NUMBER_OF_FRAMES NUMBER_OF_BYTES
Аудио #1
Идентификатор                            : 2
Формат                                   : AC-3
Формат/Информация                        : Audio Coding 3
Расширение режима                        : CM (complete main)
Параметр Endianness формата              : Big
Идентификатор кодека                     : A_AC3
Продолжительность                        : 1 ч. 33 м.
Вид битрейта                             : Постоянный
Битрейт                                  : 384 Кбит/сек
Каналы                                   : 6 каналов
Расположение каналов                     : Front: L C R, Side: L R, LFE
Частота                                  : 48,0 КГц
Битовая глубина                          : 16 бит
Метод сжатия                             : С потерями
Размер потока                            : 258 Мбайт (5%)
Заголовок                                : Дублированный
Язык                                     : Russian
Default                                  : Да
Forced                                   : Нет
Аудио #2
Идентификатор                            : 3
Формат                                   : DTS
Формат/Информация                        : Digital Theater Systems
Режим                                    : 16
Параметр Endianness формата              : Big
Идентификатор кодека                     : A_DTS
Продолжительность                        : 1 ч. 33 м.
Вид битрейта                             : Постоянный
Битрейт                                  : 1509 Кбит/сек
Каналы                                   : 6 каналов
Расположение каналов                     : Front: L C R, Side: L R, LFE
Частота                                  : 48,0 КГц
Битовая глубина                          : 24 бит
Метод сжатия                             : С потерями
Размер потока                            : 1015 Мбайт (21%)
Заголовок                                : Оригинальный
Язык                                     : English
Default                                  : Нет
Forced                                   : Нет
Текст #1
Идентификатор                            : 4
Формат                                   : UTF-8
Идентификатор кодека                     : S_TEXT/UTF8
Идентификатор кодека/Информация          : UTF-8 Plain Text
Язык                                     : Russian
Default                                  : Нет
Forced                                   : Нет
Текст #2
Идентификатор                            : 5
Формат                                   : UTF-8
Идентификатор кодека                     : S_TEXT/UTF8
Идентификатор кодека/Информация          : UTF-8 Plain Text
Язык                                     : English
Default                                  : Нет
Forced                                   : Нет

Награды и премии

Сатурн, 2005 год
Номинации (1):
* Лучшая актриса второго плана (Ким Бейсингер)

Интересные факты

*** Эрик Бресс и Дж. Макки Груббер переработали сценарий фильма, но при этом они так и не удостоились упоминания в титрах.
*** Ларри Коэн работал над сценарием фильма в тот период, когда пытался продать сценарий к «Телефонной будке» (2002). В статье в журнале «New Yorker» он рассказал, что его замыслом было создать фильм полную противоположность «Телефонной будке», где герой не может отойти от телефона, в то время как в новом фильме он привязан к телефону, но может идти куда угодно. Его друзья не поняли замысел и сказали, что он просто дважды написал один и тот же сценарий.
*** В течение фильма неоднократно можно заметить различные отсылки к киностудии New Line Cinema, финансировавшей проект. Босс киностудии Роберт Шэй появляется в камео в качестве раздражённого мужчины в полицейском участке. Продюсер картины Дин Дэвлин появляется в камео как водитель такси, который везёт Райана в одной из сцен фильма. На школьном рюкзаке Рикки можно увидеть постер картины «Властелин Колец: Братство Кольца (2001), а по телевизору в доме похитителей идёт «Пункт назначения» (2000). Оба фильма также поставлены киностудией New Line Cinema.
*** Фильм должен был быть режиссёрским дебютом Дина Дэвлина, но в процессе подготовки к съёмкам он всё же принял решение отказать от этого и стал одним из продюсеров проекта.
*** Модель сотового телефона, которую использует Райан в фильме, это Nokia 6600.
*** Сотовый телефон, который был у Криса Эванса на протяжении съёмок фильма, на самом деле не работал. Реплики Ким Бэсинджер предназначенные ему он слышал через маленький наушник.
*** Когда Райан находится в аэропорте Лос-Анджелеса можно услышать объявление о начале посадки на рейс 180 в Париж. Это тот же самый рейс, в котором погибли герои ленты «Пункт назначения» (2000).
*** Татуировка на правой руке Райана это японский иероглиф означающий «верность» и «честь», единственный намёк на героизм в общем-то обыкновенном парне.
*** Крис Эванс самостоятельно исполнил все свои трюки с машиной без привлечения профессиональных каскадёров. Для этого он в течение пяти недель проходил подготовку в лос-анджелесской школе каскадёров. Большинство других трюков в фильме также выполнены самими актёрами.
*** 5 августа 2004 года на одном из американских ток-шоу Ким Бэсинджер рассказала, что когда она разговаривала по сотовому телефону, стоя снаружи уборной одного из кинотеатров в ожидании своего друга, её сильно раздражала небольшая грубая толпа, собравшаяся вокруг, смеющаяся и указывающая на неё. Только когда её друг вышел из уборной и указал ей, что она стоит прямо перед постером «Сотового», изображающего Ким Бэсинджер говорящую по сотовому телефону, она поняла, что вызвало такую реакцию окружающих.
Скриншоты: Время раздачи: 24/7
[Профиль] [ЛС]
Кто просматривает тему:

Показать сообщения:    

Текущее время: Сегодня 10:34

Часовой пояс: GMT



Вы не можете начинать темы
Вы не можете отвечать на сообщения
Вы не можете редактировать свои сообщения
Вы не можете удалять свои сообщения
Вы не можете голосовать в опросах
Вы не можете прикреплять файлы к сообщениям
Вы не можете скачивать файлы