Сотня / 100 / The 100 / The Hundred [S01] (2014) WEB-DLRip от Generalfilm | КПК | LostFilm

 
Автор Сообщение

Белочка ®

Пол:

Стаж: 5 лет 1 месяц

Сообщений: 2089



Награды: 1 (Подробнее)

Girls (Количество: 1)
Торрент-статистика

Создавать темы 17-Ноя-2014 21:00

[Цитировать]

Информация о фильме
Название: Сотня
Оригинальное название: The Hundred
Год выхода: 2014
Жанр: Фантастика, экранизация
Режиссер: Дин Уайт, Джон Беринг, Милан Чейлов
В ролях: Элиза Тейлор, Мари Авгеропулос, Сачин Сахель, Линдси Морган, Женевьев Бюкнер, Ричард Хэрмон, Джарод Джозеф, Челси Рейст, Крис Браунинг, Джош Ссеттуба
О фильме:
Экранизация одноименного романа Касс Морган. После ядерной войны прошло 97 лет. Остатки человечества, укрывшиеся на космической станции «Ковчег», страдают от нехватки ресурсов, необходимых для дальнейшего выживания. Правительство исчерпало все меры, включая жесткое ограничение рождаемости, но ситуация продолжает ухудшаться. Остается единственный выход — попробовать вернуться на Землю. Чтобы узнать, пригодна ли для жизни покинутая давным-давно планета, правительство отправляет туда сотню молодых правонарушителей, в числе которых оказываются дети высокопоставленных чиновников и других известных на «Ковчеге» людей. Теперь судьба всего человечества зависит от этой группы «изгнанников»...

Список серий:

01. Пилот
02. Выжить на Земле
03. Умереть на Земле
04. Закон Мерфи
05. Последний луч сумерек
06. Ради сестры
07. Под давлением
08. Однодневное путешествие
09. День единства
10. Я стал Смертью
11. Тишина
12. Мы - земляне: часть 1
13. Мы - земляне: часть 2
Страна: США
Студия: Bonanza Productions, Alloy Entertainment, Warner Bros. Television
Продолжительность: 13 х ~ 00:42:00
Перевод: Профессиональный (многоголосый, закадровый) [LostFilm]
Файл
Формат: MP4
Качество: WEB-DLRip | КПК
Видео: MPEG-4 AVC (x264), 640x360, ~500 kbps, 23.976 fps
Аудио: AAC LC, 48.0 KHz, 2 ch, 128 Kbps
Субтитры: Нет
Семпл

Скриншоты

MI

Complete name : E:KinoSotnya.AVC.WEB-DLRip.KPK.LF.GeneralfilmSotnya.S01.2014.AVC.WEB-DLRip.KPK.LF.GeneralfilmSotnya.s01e01.2014.AVC.WEB-DLRip.KPK.LF.Generalfilm.mp4
Format : MPEG-4
Format profile : Base Media
Codec ID : isom
File size : 187 MiB
Duration : 41mn 25s
Overall bit rate mode : Variable
Overall bit rate : 631 Kbps
Encoded date : UTC 2014-11-05 16:21:10
Tagged date : UTC 2014-11-05 16:21:10
Video
ID : 1
Format : AVC
Format/Info : Advanced Video Codec
Format profile : Baseline@L4.1
Format settings, CABAC : No
Format settings, ReFrames : 6 frames
Codec ID : avc1
Codec ID/Info : Advanced Video Coding
Duration : 41mn 25s
Bit rate : 500 Kbps
Maximum bit rate : 3 804 Kbps
Width : 640 pixels
Height : 360 pixels
Display aspect ratio : 16:9
Frame rate mode : Constant
Frame rate : 23.976 fps
Color space : YUV
Chroma subsampling : 4:2:0
Bit depth : 8 bits
Scan type : Progressive
Bits/(Pixel*Frame) : 0.091
Stream size : 148 MiB (79%)
Writing library : x264 core 125 r2200 999b753
Encoding settings : cabac=0 / ref=6 / deblock=1:-1:-1 / analyse=0x1:0x111 / me=umh / subme=7 / psy=1 / psy_rd=1.00:0.00 / mixed_ref=0 / me_range=16 / chroma_me=1 / trellis=1 / 8x8dct=0 / cqm=0 / deadzone=21,11 / fast_pskip=0 / chroma_qp_offset=-2 / threads=12 / lookahead_threads=2 / sliced_threads=0 / nr=0 / decimate=1 / interlaced=0 / bluray_compat=0 / constrained_intra=0 / bframes=0 / weightp=0 / keyint=250 / keyint_min=23 / scenecut=40 / intra_refresh=0 / rc_lookahead=60 / rc=2pass / mbtree=1 / bitrate=500 / ratetol=1.0 / qcomp=0.60 / qpmin=0 / qpmax=69 / qpstep=4 / cplxblur=20.0 / qblur=0.5 / ip_ratio=1.40 / aq=1:1.00
Encoded date : UTC 2014-11-05 16:21:10
Tagged date : UTC 2014-11-05 16:21:14
Audio
ID : 2
Format : AAC
Format/Info : Advanced Audio Codec
Format profile : LC
Codec ID : 40
Duration : 41mn 25s
Bit rate mode : Variable
Bit rate : 128 Kbps
Maximum bit rate : 166 Kbps
Channel count : 2 channels
Channel positions : Front: L R
Sampling rate : 48.0 KHz
Compression mode : Lossy
Stream size : 37.9 MiB (20%)
Encoded date : UTC 2014-11-05 16:21:13
Tagged date : UTC 2014-11-05 16:21:14
Релиз от:
[Профиль] [ЛС]
Показать сообщения:    

Текущее время: Сегодня 06:29

Часовой пояс: GMT



Вы не можете начинать темы
Вы не можете отвечать на сообщения
Вы не можете редактировать свои сообщения
Вы не можете удалять свои сообщения
Вы не можете голосовать в опросах
Вы не можете прикреплять файлы к сообщениям
Вы не можете скачивать файлы