Сосед-террорист / The Terrorist Next Door (Джерри Чиккоритти / Jerry Ciccoritti) [2008, Канада, Драма, криминал, HDTVRip] DVO (НТВ+)

 
Автор Сообщение

TorrentFilm ®

Пол:

Стаж: 2 года

Сообщений: 7741



Награды: Нет

Торрент-статистика

Создавать темы 11-Июл-2015 00:10

[Цитировать]

Сосед-террорист / The Terrorist Next Door
Страна: Канада
Жанр: Драма, криминал
Год выпуска: 2008
Продолжительность: 01:24:21
Перевод: Профессиональный (двухголосый закадровый) НТВ+
Cубтитры: нет
Режиссер: Джерри Чиккоритти / Jerry Ciccoritti
В ролях: Кэтлин Робертсон, Крис Мартин, Пол Дусе, Жан-Франсуа Бланчард, Майкл Айронсайд, Джеймс Берлиньери, Пьер Чавес, Каньехтио Хорн, Пьер Ленуар, Карло Местрони, Дженнифер Морхауз, Келли Энн Паттерсон, Паула Ривера, Норманд Рой
Описание: Фильм основан на реальных событиях, предшествующих теракту 11 сентября 2001 года. Франция. При попытке угона самолета был убит глава исламских фундаменталистов. При нем находились списки людей, связанных с Аль-Каидой. Среди прочих в списках числится учредитель канадского благотворительного фонда для мусульманских сирот. Мировые лидеры всерьез обеспокоены возможностью проведения экстремистами новых терактов…
Сэмпл: https://yadi.sk/i/NH02XLu2hkMET
Доп. информация: За предоставленный рип благодарим Ledy_X
"Спасибы" просьба ПИСАТЬ в теме, тем самым вы продлеваете жизнь раздаче.
За синхрон дорожки спасибо xelon2006
Релиз
Качество видео: HDTVRip [Исходник 1080i]
Формат видео: AVI
Видео: 720x400 (1.80:1), 25 fps, XviD build 50 ~2149 kbps avg, 0.30 bit/pixel
Аудио: 48 kHz, AC3 Dolby Digital, 2/0 (L,R) ch, ~192 kbps

MediaInfo

Сосед-террорист - The Terrorist Next Door [Rip by Ledy_X].avi
Format : AVI
Format/Info : Audio Video Interleave
File size : 1.39 GiB
Duration : 1h 24mn
Overall bit rate : 2 352 Kbps
Movie name : Сосед-террорист - The Terrorist Next Door [Rip by Ledy_X]
Director : Rip by Ledy_X
Copyright : Edich2
Comment : RuTracker.org
Video
ID : 0
Format : MPEG-4 Visual
Format profile : Advanced Simple@L5
Format settings, BVOP : 1
Format settings, QPel : No
Format settings, GMC : No warppoints
Format settings, Matrix : Default (MPEG)
Codec ID : XVID
Codec ID/Hint : XviD
Duration : 1h 24mn
Bit rate : 2 150 Kbps
Width : 720 pixels
Height : 400 pixels
Display aspect ratio : 16:9
Frame rate : 25.000 fps
Color space : YUV
Chroma subsampling : 4:2:0
Bit depth : 8 bits
Scan type : Progressive
Compression mode : Lossy
Bits/(Pixel*Frame) : 0.299
Stream size : 1.27 GiB (91%)
Writing library : XviD 1.2.1 (UTC 2008-12-04)
Audio
ID : 1
Format : AC-3
Format/Info : Audio Coding 3
Mode extension : CM (complete main)
Format settings, Endianness : Big
Codec ID : 2000
Duration : 1h 24mn
Bit rate mode : Constant
Bit rate : 192 Kbps
Channel(s) : 2 channels
Channel positions : Front: L R
Sampling rate : 48.0 KHz
Bit depth : 16 bits
Compression mode : Lossy
Stream size : 116 MiB (8%)
Alignment : Aligned on interleaves
Interleave, duration : 40 ms (1.00 video frame)
Interleave, preload duration : 512 ms

Скриншоты


[Профиль] [ЛС]

Создавать темы 06-Авг-2015 22:25 (спустя 26 дней)

Топик был перенесен из форума Фильмы до 2014 года в форум Фильмы до 2012 года
sergej644
 

Создавать темы 12-Июн-2016 08:52 (спустя 11 месяцев 1 день)

Топик был перенесен из форума Фильмы 2011 года в форум Фильмы 2006-2008 года
Russian Mafia
 
Кто просматривает тему:

Форум Тема Автор Размер
Pop (Pop) Дискомафия - На соседней улице - 2005, FLAC (image+.cue), lossless sergej644 346 MB
Фильмы (HD Rips | 720p, 1080p) Белый мавр, или Интимные истории о моих соседях (2012) HDTV 1080i от MediaClub Russian Mafia 6.14 GB
Фильмы (HD Rips | 720p, 1080p) Белый мавр, или Интимные истории о моих соседях (2012) WEB-DL 720p Russian Mafia 2.11 GB
Фильмы 2012 года Белый мавр, или Интимные истории о моих соседях (2012) WEB-DLRip-AVC Russian Mafia 1.81 GB
Фильмы (DVD 5/9) Белый мавр, или Интимные истории о моих соседях (Дмитрий Фикс) [2012, Россия, драма, комедия, DVD5] R5 Original Rus TorrentFilm 4.14 GB
Фильмы 2011 года Девушка напротив / Девушка по соседству / The Girl Next Door (Грегори Уилсон / Gregory Wilson) [2007, США, триллер, драма, криминал, BDRip-AVC] MVO + AVO (Алексеев) + Original (Eng) + Subs (Eng) TorrentFilm 2.51 GB
Зарубежные мультфильмы Медведи-соседи / Boonie Bears, to the Rescue! (Динг Лианг, Фуюань Лю) [2014 г.,Китай, Мультфильм, комедия, приключения, полноразмерный, WEB-DLRip] BOSS 1.37 GB
Зарубежные мультфильмы Медведи-соседи: Зимние каникулы / Boonie Bears: Homeward Journey (Фуюань Лью) [2013, мультфильм, комедия, приключения, семейный] WEB-DLRip | Звук с TS BOSS 699 MB
Показать сообщения:    

Текущее время: Сегодня 04:31

Часовой пояс: GMT



Вы не можете начинать темы
Вы не можете отвечать на сообщения
Вы не можете редактировать свои сообщения
Вы не можете удалять свои сообщения
Вы не можете голосовать в опросах
Вы не можете прикреплять файлы к сообщениям
Вы не можете скачивать файлы