Соседка по комнате / The Roommate (2011) BDRip 720p | P, L2

 
Автор Сообщение

BOSS ®

Пол:

Стаж: 3 года 11 месяцев

Сообщений: 11883

Откуда: ODESSA



Награды: 22 (Подробнее)

Mega Seeder 2 (Количество: 1) Top Seeder 3 (Количество: 1) Mega Seeder 1 (Количество: 1)
Торрент-статистика

Создавать темы 03-Июн-2018 11:46

[Цитировать]

Информация о фильме:
Название: Соседка по комнате
Оригинальное название: The Roommate
Год выхода: 2011
Жанр: триллер, драма
Режиссер: Кристиан Е. Кристиансен
В ролях: Лейтон Мистер, Минка Келли, Кэм Жиганде, Элисон Мичалка, Дэннил Эклс, Фрэнсис Фишер, Томас Арана, Билли Зейн, Нина Добрев, Мэтт Лантер, Катерина Грэхэм
О фильме:
Выпускница Сара Мэттьюс поступает в колледж. Там она знакомится со своей новой соседкой по комнате — Ребеккой. Со временем девушки становятся настоящими подругами, но когда у Сары появляются новые друзья и любимый человек, отношения между подругами начинают портиться.Вскоре Ребекка начинает давить на Сару, не желая отпускать её от себя. Сара начинает сопротивляться настырной подруге. Вскоре с ее друзьями начинают происходить несчастные случаи. Позже она узнает, что все это — дело рук Ребекки, страдающей психическими расстройствами. Девушка начинает вредить каждому, кто, как ей кажется, встаёт между ней и Сарой. Теперь Саре нужно спасаться как можно скорее — ведь кто знает, что взбредет в голову ее соседке…

Выпущено: США
Продолжительность: 01:31:16
Перевод: Профессиональный многоголосый, любительский двухголосый
Субтитры: Русские, английские, французские, испанские, португальские, эстонские
Файл:
Формат: MKV
Качество: BDRip 720p
Видео: MPEG-4 AVC, 5556 Кбит/с, 1280x536, 23.976 кадр/с
Аудио #1: Русский (AC3, 6 ch, 448 Кбит/с) Профессиональный многоголосый (Blu-Ray CEE)
Аудио #2: Русский (АС3, 2 ch, 192 Кбит/с) Любительский двухголосый (Katerin & Kerob)
Аудио #3: Украинский (AC3, 2 ch, 192 Кбит/с) Профессиональный двухголосый («Новий»)
Аудио #4: Английский (АС3, 6 ch, 448 Кбит/с) Оригинал
Скриншоты:

MI

Общее
Уникальный идентификатор : 184745963744181023304902657373350502509 (0x8AFCC7431F6319DF8E914504D891A06D)
Полное имя : D:KinoZal5The RoommateThe.Roommate.2011.BDRip.(720p).mkv
Формат : Matroska
Версия формата : Version 4 / Version 2
Размер файла : 4,36 Гбайт
Продолжительность : 1 ч. 31 м.
Общий поток : 6837 Кбит/сек
Название фильма : The Roommate (2011)
Дата кодирования : UTC 2016-05-11 19:50:40
Программа кодирования : mkvmerge v6.9.1 ('Blue Panther') 64bit built on Apr 18 2014 18:23:38
Библиотека кодирования : libebml v1.3.0 + libmatroska v1.4.1
Видео
Идентификатор : 1
Формат : AVC
Формат/Информация : Advanced Video Codec
Профиль формата : High@L4.1
Параметр CABAC формата : Да
Параметр ReFrames формата : 12 кадров
Идентификатор кодека : V_MPEG4/ISO/AVC
Продолжительность : 1 ч. 31 м.
Битрейт : 5556 Кбит/сек
Ширина : 1280 пикселей
Высота : 536 пикселей
Соотношение сторон : 2,40:1
Режим частоты кадров : Постоянный
Частота кадров : 23,976 кадра/сек
Цветовое пространство : YUV
Субдискретизация насыщенности : 4:2:0
Битовая глубина : 8 бит
Тип развёртки : Прогрессивная
Бит/(Пиксели*Кадры) : 0.338
Размер потока : 3,46 Гбайт (79%)
Заголовок : The Roommate (2011)
Библиотека кодирования : x264 core 148 r2638 7599210
Настройки программы : cabac=1 / ref=12 / deblock=1:-3:-3 / analyse=0x3:0x133 / me=umh / subme=11 / psy=1 / psy_rd=1.00:0.00 / mixed_ref=1 / me_range=32 / chroma_me=1 / trellis=2 / 8x8dct=1 / cqm=0 / deadzone=21,11 / fast_pskip=1 / chroma_qp_offset=-2 / threads=6 / lookahead_threads=1 / sliced_threads=0 / nr=0 / decimate=1 / interlaced=0 / bluray_compat=0 / constrained_intra=0 / bframes=8 / b_pyramid=2 / b_adapt=2 / b_bias=0 / direct=3 / weightb=1 / open_gop=0 / weightp=2 / keyint=240 / keyint_min=23 / scenecut=40 / intra_refresh=0 / rc_lookahead=60 / rc=2pass / mbtree=1 / bitrate=5556 / ratetol=1.0 / qcomp=0.60 / qpmin=0 / qpmax=69 / qpstep=4 / cplxblur=20.0 / qblur=0.5 / vbv_maxrate=50000 / vbv_bufsize=62500 / nal_hrd=none / filler=0 / ip_ratio=1.40 / aq=1:1.00
Язык : English
Default : Да
Forced : Нет
Аудио #1
Идентификатор : 2
Формат : AC-3
Формат/Информация : Audio Coding 3
Расширение режима : CM (complete main)
Параметр Endianness формата : Big
Идентификатор кодека : A_AC3
Продолжительность : 1 ч. 31 м.
Вид битрейта : Постоянный
Битрейт : 448 Кбит/сек
Каналы : 6 каналов
Расположение каналов : Front: L C R, Side: L R, LFE
Частота : 48,0 КГц
Метод сжатия : С потерями
Размер потока : 292 Мбайт (7%)
Заголовок : AC3, 6 ch, 448 Kbps, MVO
Язык : Russian
Default : Да
Forced : Нет
Аудио #2
Идентификатор : 3
Формат : AC-3
Формат/Информация : Audio Coding 3
Расширение режима : CM (complete main)
Параметр Endianness формата : Big
Идентификатор кодека : A_AC3
Продолжительность : 1 ч. 31 м.
Вид битрейта : Постоянный
Битрейт : 192 Кбит/сек
Каналы : 2 канала
Расположение каналов : Front: L R
Частота : 48,0 КГц
Метод сжатия : С потерями
Размер потока : 125 Мбайт (3%)
Заголовок : AC3, 2 ch, 192 Kbps, DVO, Katerina & Kerob
Язык : Russian
Default : Нет
Forced : Нет
Аудио #3
Идентификатор : 4
Формат : AC-3
Формат/Информация : Audio Coding 3
Расширение режима : CM (complete main)
Параметр Endianness формата : Big
Идентификатор кодека : A_AC3
Продолжительность : 1 ч. 31 м.
Вид битрейта : Постоянный
Битрейт : 192 Кбит/сек
Каналы : 2 канала
Расположение каналов : Front: L R
Частота : 48,0 КГц
Метод сжатия : С потерями
Размер потока : 125 Мбайт (3%)
Заголовок : AC3, 2 ch, 192 Kbps, Українська
Язык : Ukrainian
Default : Нет
Forced : Нет
Аудио #4
Идентификатор : 5
Формат : AC-3
Формат/Информация : Audio Coding 3
Расширение режима : CM (complete main)
Параметр Endianness формата : Big
Идентификатор кодека : A_AC3
Продолжительность : 1 ч. 31 м.
Вид битрейта : Постоянный
Битрейт : 448 Кбит/сек
Каналы : 6 каналов
Расположение каналов : Front: L C R, Side: L R, LFE
Частота : 48,0 КГц
Метод сжатия : С потерями
Размер потока : 292 Мбайт (7%)
Заголовок : AC3, 6 ch, 448 Kbps, Original
Язык : English
Default : Нет
Forced : Нет
Текст #1
Идентификатор : 6
Формат : UTF-8
Идентификатор кодека : S_TEXT/UTF8
Идентификатор кодека/Информация : UTF-8 Plain Text
Язык : Russian
Default : Нет
Forced : Нет
Текст #2
Идентификатор : 7
Формат : UTF-8
Идентификатор кодека : S_TEXT/UTF8
Идентификатор кодека/Информация : UTF-8 Plain Text
Язык : English
Default : Нет
Forced : Нет
Текст #3
Идентификатор : 8
Формат : UTF-8
Идентификатор кодека : S_TEXT/UTF8
Идентификатор кодека/Информация : UTF-8 Plain Text
Язык : French
Default : Нет
Forced : Нет
Текст #4
Идентификатор : 9
Формат : UTF-8
Идентификатор кодека : S_TEXT/UTF8
Идентификатор кодека/Информация : UTF-8 Plain Text
Язык : Spanish
Default : Нет
Forced : Нет
Текст #5
Идентификатор : 10
Формат : UTF-8
Идентификатор кодека : S_TEXT/UTF8
Идентификатор кодека/Информация : UTF-8 Plain Text
Язык : Portuguese
Default : Нет
Forced : Нет
Текст #6
Идентификатор : 11
Формат : UTF-8
Идентификатор кодека : S_TEXT/UTF8
Идентификатор кодека/Информация : UTF-8 Plain Text
Язык : Estonian
Default : Нет
Forced : Нет
Меню
00:00:00.000 : en:00:00:00.000
00:07:07.802 : en:00:07:07.802
00:10:31.673 : en:00:10:31.673
00:15:25.007 : en:00:15:25.007
00:20:45.870 : en:00:20:45.870
00:24:30.427 : en:00:24:30.427
00:29:18.966 : en:00:29:18.966
00:34:02.290 : en:00:34:02.290
00:41:10.677 : en:00:41:10.677
00:45:13.753 : en:00:45:13.753
00:51:33.799 : en:00:51:33.799
00:55:49.137 : en:00:55:49.137
01:00:39.427 : en:01:00:39.427
01:04:31.409 : en:01:04:31.409
01:10:43.531 : en:01:10:43.531
01:18:52.061 : en:01:18:52.061
[Профиль] [ЛС]
Показать сообщения:    

Текущее время: Сегодня 14:44

Часовой пояс: GMT



Вы не можете начинать темы
Вы не можете отвечать на сообщения
Вы не можете редактировать свои сообщения
Вы не можете удалять свои сообщения
Вы не можете голосовать в опросах
Вы не можете прикреплять файлы к сообщениям
Вы не можете скачивать файлы