Соседи. На тропе войны 2 / Neighbors 2: Sorority Rising (2016) BDRip 720p | iTunes

 
Автор Сообщение

Russian Mafia ®

Пол:

Стаж: 1 год 8 месяцев

Сообщений: 4256



Награды: 10 (Подробнее)

Mega Seeder 3 (Количество: 1) Top Releaser 4 (Количество: 1) Mega Seeder 4 (Количество: 1)
Торрент-статистика

Создавать темы 22-Авг-2016 13:04

[Цитировать]

Информация о фильме
Название: Соседи. На тропе войны 2
Оригинальное название: Neighbors 2: Sorority Rising
Год выхода: 2016
Жанр: комедия
Режиссер: Николас Столлер / Nicholas Stoller
В ролях: Сет Роген, Зак Эфрон, Роуз Бирн, Хлоя Грейс Морец, Айк Баринхолц, Кирси Клемонс, Дэйв Франко, Джеррод Кармайкл, Кристофер Минц-Плассе, Бини Фелдштейн
О фильме: На этот раз в дом по соседству с Маком и Келли въезжает университетский женский клуб. Чтобы разобраться с новыми соседями, которые не дают им покоя, Мак и Келли решают обратиться за помощью к их бывшему врагу — Тедди Сандерсу.
Страна: США
Продолжительность: 01:32:23
Перевод: Професиональный (полное дублирование) [iTunes]

Файл
Кодек: MPEG-4 AVC
Качество: BDRip 720p
Видео: 5258 Кбит/с, 1280x536
Звук: Русский (AC3, 6 ch, 384 Кбит/с), Английский (DTS, 6 ch, 1509 Кбит/с)
Субтитры: Английские
Семпл

Скриншоты

MediaInfo

Общее
Уникальный идентификатор : 246859756075815798496824590714446231132 (0xB9B775AA3FEC4EB9BFB919D19B27365C)
Полное имя : D:Соседи. На тропе войны 2 - Neighbors 2 Sorority.Rising BDRip 720p .mkv
Формат : Matroska
Версия формата : Version 4 / Version 2
Размер файла : 4,62 Гбайт
Продолжительность : 1 ч. 32 м.
Общий поток : 7153 Кбит/сек
Дата кодирования : UTC 2016-08-22 09:34:53
Программа кодирования : mkvmerge v8.2.0 ('World of Adventure') 64bit
Библиотека кодирования : libebml v1.3.1 + libmatroska v1.4.2
DURATION : 01:32:22.752000000
NUMBER_OF_FRAMES : 173211
NUMBER_OF_BYTES : 266052096
_STATISTICS_WRITING_APP : mkvmerge v8.2.0 ('World of Adventure') 64bit
_STATISTICS_WRITING_DATE_UTC : 2016-08-22 09:34:53
_STATISTICS_TAGS : BPS DURATION NUMBER_OF_FRAMES NUMBER_OF_BYTES
Видео
Идентификатор : 1
Формат : AVC
Формат/Информация : Advanced Video Codec
Профиль формата : High@L4.1
Параметр CABAC формата : Да
Параметр ReFrames формата : 5 кадров
Идентификатор кодека : V_MPEG4/ISO/AVC
Продолжительность : 1 ч. 32 м.
Битрейт : 5258 Кбит/сек
Ширина : 1280 пикселей
Высота : 536 пикселей
Соотношение сторон : 2,40:1
Режим частоты кадров : Постоянный
Частота кадров : 23,976 кадра/сек
Цветовое пространство : YUV
Субдискретизация насыщенности : 4:2:0
Битовая глубина : 8 бит
Тип развёртки : Прогрессивная
Бит/(Пиксели*Кадры) : 0.320
Размер потока : 3,30 Гбайт (72%)
Библиотека кодирования : x264 core 148 r2705 3f5ed56
Настройки программы : cabac=1 / ref=5 / deblock=1:-3:-3 / analyse=0x3:0x113 / me=umh / subme=8 / psy=1 / psy_rd=1.00:0.00 / mixed_ref=1 / me_range=16 / chroma_me=1 / trellis=1 / 8x8dct=1 / cqm=0 / deadzone=21,11 / fast_pskip=1 / chroma_qp_offset=-2 / threads=12 / lookahead_threads=2 / sliced_threads=0 / nr=0 / decimate=1 / interlaced=0 / bluray_compat=0 / constrained_intra=0 / bframes=3 / b_pyramid=2 / b_adapt=2 / b_bias=0 / direct=3 / weightb=1 / open_gop=0 / weightp=2 / keyint=240 / keyint_min=24 / scenecut=40 / intra_refresh=0 / rc_lookahead=50 / rc=2pass / mbtree=1 / bitrate=5258 / ratetol=1.0 / qcomp=0.60 / qpmin=0 / qpmax=69 / qpstep=4 / cplxblur=20.0 / qblur=0.5 / ip_ratio=1.40 / aq=3:0.80
Default : Да
Forced : Нет
DURATION : 01:32:23.830000000
NUMBER_OF_FRAMES : 132919
NUMBER_OF_BYTES : 3643158500
_STATISTICS_WRITING_APP : mkvmerge v8.2.0 ('World of Adventure') 64bit
_STATISTICS_WRITING_DATE_UTC : 2016-08-22 09:34:53
_STATISTICS_TAGS : BPS DURATION NUMBER_OF_FRAMES NUMBER_OF_BYTES
Аудио #1
Идентификатор : 2
Формат : AC-3
Формат/Информация : Audio Coding 3
Расширение режима : CM (complete main)
Параметр Endianness формата : Big
Идентификатор кодека : A_AC3
Продолжительность : 1 ч. 32 м.
Вид битрейта : Постоянный
Битрейт : 384 Кбит/сек
Каналы : 6 каналов
Расположение каналов : Front: L C R, Side: L R, LFE
Частота : 48,0 КГц
Битовая глубина : 16 бит
Метод сжатия : С потерями
Размер потока : 254 Мбайт (5%)
Default : Да
Forced : Нет
DURATION : 01:32:23.840000000
NUMBER_OF_FRAMES : 519735
NUMBER_OF_BYTES : 1045706820
_STATISTICS_WRITING_APP : mkvmerge v8.2.0 ('World of Adventure') 64bit
_STATISTICS_WRITING_DATE_UTC : 2016-08-22 09:34:53
_STATISTICS_TAGS : BPS DURATION NUMBER_OF_FRAMES NUMBER_OF_BYTES
Аудио #2
Идентификатор : 3
Формат : DTS
Формат/Информация : Digital Theater Systems
Режим : 16
Параметр Endianness формата : Big
Идентификатор кодека : A_DTS
Продолжительность : 1 ч. 32 м.
Вид битрейта : Постоянный
Битрейт : 1509 Кбит/сек
Каналы : 6 каналов
Расположение каналов : Front: L C R, Side: L R, LFE
Частота : 48,0 КГц
Битовая глубина : 24 бит
Метод сжатия : С потерями
Размер потока : 997 Мбайт (21%)
Язык : English
Default : Нет
Forced : Нет
DURATION : 01:25:19.614000000
NUMBER_OF_FRAMES : 2127
NUMBER_OF_BYTES : 64774
_STATISTICS_WRITING_APP : mkvmerge v8.2.0 ('World of Adventure') 64bit
_STATISTICS_WRITING_DATE_UTC : 2016-08-22 09:34:53
_STATISTICS_TAGS : BPS DURATION NUMBER_OF_FRAMES NUMBER_OF_BYTES
Текст #1
Идентификатор : 4
Формат : UTF-8
Идентификатор кодека : S_TEXT/UTF8
Идентификатор кодека/Информация : UTF-8 Plain Text
Язык : English
Default : Нет
Forced : Нет
DURATION : 01:25:19.614000000
NUMBER_OF_FRAMES : 2267
NUMBER_OF_BYTES : 70051
_STATISTICS_WRITING_APP : mkvmerge v8.2.0 ('World of Adventure') 64bit
_STATISTICS_WRITING_DATE_UTC : 2016-08-22 09:34:53
_STATISTICS_TAGS : BPS DURATION NUMBER_OF_FRAMES NUMBER_OF_BYTES
Текст #2
Идентификатор : 5
Формат : UTF-8
Идентификатор кодека : S_TEXT/UTF8
Идентификатор кодека/Информация : UTF-8 Plain Text
Заголовок : SDH
Язык : English
Default : Нет
Forced : Нет
Меню
00:00:00.000 : en:00:00:00.000
00:06:30.890 : en:00:06:30.890
00:09:50.381 : en:00:09:50.381
00:13:05.535 : en:00:13:05.535
00:17:37.890 : en:00:17:37.890
00:22:13.082 : en:00:22:13.082
00:27:34.278 : en:00:27:34.278
00:31:54.454 : en:00:31:54.454
00:38:36.022 : en:00:38:36.022
00:44:43.222 : en:00:44:43.222
00:50:42.039 : en:00:50:42.039
00:54:32.811 : en:00:54:32.811
01:00:54.609 : en:01:00:54.609
01:04:14.684 : en:01:04:14.684
01:08:26.644 : en:01:08:26.644
01:12:54.370 : en:01:12:54.370
01:16:34.423 : en:01:16:34.423
01:20:45.215 : en:01:20:45.215
01:23:18.994 : en:01:23:18.994
01:26:03.700 : en:01:26:03.700
[Профиль] [ЛС]
Кто просматривает тему:

Форум Тема Автор Размер
Pop (Pop) Дискомафия - На соседней улице - 2005, FLAC (image+.cue), lossless sergej644 346 MB
Фильмы (HD Rips | 720p, 1080p) Белый мавр, или Интимные истории о моих соседях (2012) HDTV 1080i от MediaClub Russian Mafia 6.14 GB
Фильмы (HD Rips | 720p, 1080p) Белый мавр, или Интимные истории о моих соседях (2012) WEB-DL 720p Russian Mafia 2.11 GB
Фильмы 2012 года Белый мавр, или Интимные истории о моих соседях (2012) WEB-DLRip-AVC Russian Mafia 1.81 GB
Фильмы (DVD 5/9) Белый мавр, или Интимные истории о моих соседях (Дмитрий Фикс) [2012, Россия, драма, комедия, DVD5] R5 Original Rus TorrentFilm 4.14 GB
Фильмы 2011 года Девушка напротив / Девушка по соседству / The Girl Next Door (Грегори Уилсон / Gregory Wilson) [2007, США, триллер, драма, криминал, BDRip-AVC] MVO + AVO (Алексеев) + Original (Eng) + Subs (Eng) TorrentFilm 2.51 GB
Зарубежные мультфильмы Медведи-соседи / Boonie Bears, to the Rescue! (Динг Лианг, Фуюань Лю) [2014 г.,Китай, Мультфильм, комедия, приключения, полноразмерный, WEB-DLRip] BOSS 1.37 GB
Зарубежные мультфильмы Медведи-соседи: Зимние каникулы / Boonie Bears: Homeward Journey (Фуюань Лью) [2013, мультфильм, комедия, приключения, семейный] WEB-DLRip | Звук с TS BOSS 699 MB
Показать сообщения:    

Текущее время: Сегодня 08:56

Часовой пояс: GMT



Вы не можете начинать темы
Вы не можете отвечать на сообщения
Вы не можете редактировать свои сообщения
Вы не можете удалять свои сообщения
Вы не можете голосовать в опросах
Вы не можете прикреплять файлы к сообщениям
Вы не можете скачивать файлы