Соседи. На тропе войны / Neighbors (Николас Столлер / Nicholas Stoller) [2014 г., США, Комедия, BDRip-AVC] Dub + Sub (Rus, Ukr, Eng) + Original (Eng)

 
Автор Сообщение

sergej644 ®

Пол:

Стаж: 4 года 11 месяцев

Сообщений: 6040

Откуда: Soviet Union



Награды: Нет

Торрент-статистика

Создавать темы 27-Авг-2014 11:33

[Цитировать]

Соседи. На тропе войны / Neighbors«Семейные против студентов»- Страна: США
Жанр: Комедия
Год выпуска: 2014
Продолжительность: 01:36:41
-Перевод: Профессиональный (дублированный) |Blu-ray CEE|
Cубтитры: русские,украинские, английские
Оригинальная аудиодорожка: английский

Режиссер: Николас Столлер / Nicholas Stoller
В ролях: Сет Роген, Зак Эфрон, Роуз Бирн, Элиз Варгас, Зоя Варгас, Брайан Хаски, Айк Баринхолц, Карла Галло, Дэйв Франко, Хелстон Сейдж и др.
Описание: Как известно, мужчины бывают двух типов: холостые и глубоко женатые. Первые молоды, мускулисты и точно магнит притягивают блондинок и шумных друзей. Вторые обитают дома, выращивают детей и поглощают сериалы по телеку. Обычно их пути не пересекаются. Но стоит им стать соседями, мужчины выходят на тропу войны.
-Доп. информация: Релиз от

Сэмпл: http://multi-up.com/995011
-Качество видео: BDRip
Формат видео: MKV
Видео: AVC, 1024x426 (2.40:1), 23.976 fps, 2 300 Kbps (0.220 bit/pixel)
Аудио #1: AC-3, 48.0 KHz, 6 ch, 448 Kbps, CBR (Russian)
Аудио #2: AC-3, 48.0 KHz, 6 ch, 448 Kbps, CBR (English)
Субтитры: Русские (форсированные, полные), украинские (полные), английские (Full, SDH, Colored)
-

MediaInfo

General
Unique ID : 217074002251204178286732578342720993230 (0xA34EEE9EA7406173BB929EC520FF77CE)
Complete name : D:\Фильмы (2014)\Sosedi.Na.trope.voiny.2014.BDRip.(AVC)-MediaClub.mkv
Format : Matroska
Format version : Version 4 / Version 2
File size : 2.16 GiB
Duration : 1h 36mn
Overall bit rate : 3 196 Kbps
Movie name : -=MediaClub-kaspr=-
Encoded date : UTC 2014-08-27 05:33:22
Writing application : mkvmerge v6.9.1 ('Blue Panther') 64bit built on Apr 18 2014 18:23:38
Writing library : libebml v1.3.0 + libmatroska v1.4.1
Video
ID : 1
Format : AVC
Format/Info : Advanced Video Codec
Format profile : High@L4.1
Format settings, CABAC : Yes
Format settings, ReFrames : 10 frames
Codec ID : V_MPEG4/ISO/AVC
Duration : 1h 36mn
Bit rate : 2 300 Kbps
Width : 1 024 pixels
Height : 426 pixels
Display aspect ratio : 2.40:1
Frame rate mode : Constant
Frame rate : 23.976 fps
Color space : YUV
Chroma subsampling : 4:2:0
Bit depth : 8 bits
Scan type : Progressive
Bits/(Pixel*Frame) : 0.220
Stream size : 1.51 GiB (70%)
Title : -=MediaClub-kaspr=-
Writing library : x264 core 142 r2431+42 c69a006 tMod [8-bit@4:2:0 X86_64]
Encoding settings : cabac=1 / ref=10 / deblock=1:-3:-3 / analyse=0x3:0x113 / me=umh / subme=11 / psy=1 / fade_compensate=0.00 / psy_rd=1.00:0.20 / mixed_ref=1 / me_range=32 / chroma_me=1 / trellis=2 / 8x8dct=1 / cqm=0 / deadzone=21,11 / fast_pskip=0 / chroma_qp_offset=-3 / threads=12 / lookahead_threads=3 / sliced_threads=0 / nr=0 / decimate=0 / interlaced=0 / bluray_compat=0 / constrained_intra=0 / fgo=0 / bframes=14 / b_pyramid=2 / b_adapt=2 / b_bias=0 / direct=3 / weightb=1 / open_gop=0 / weightp=2 / keyint=240 / keyint_min=23 / scenecut=40 / intra_refresh=0 / rc=2pass / mbtree=0 / bitrate=2300 / ratetol=1.0 / qcomp=0.60 / qpmin=0:0:0 / qpmax=69:69:69 / qpstep=4 / cplxblur=20.0 / qblur=0.5 / ip_ratio=1.40 / pb_ratio=1.30 / aq=4:0.80 / aq-sensitivity=10.00 / aq-factor=1.00:1.00:1.00 / aq2=0 / aq3=0
Default : Yes
Forced : No
Audio #1
ID : 2
Format : AC-3
Format/Info : Audio Coding 3
Mode extension : CM (complete main)
Format settings, Endianness : Big
Codec ID : A_AC3
Duration : 1h 36mn
Bit rate mode : Constant
Bit rate : 448 Kbps
Channel(s) : 6 channels
Channel positions : Front: L C R, Side: L R, LFE
Sampling rate : 48.0 KHz
Bit depth : 16 bits
Compression mode : Lossy
Stream size : 310 MiB (14%)
Title : Dub
Language : Russian
Default : Yes
Forced : No
Audio #2
ID : 3
Format : AC-3
Format/Info : Audio Coding 3
Mode extension : CM (complete main)
Format settings, Endianness : Big
Codec ID : A_AC3
Duration : 1h 36mn
Bit rate mode : Constant
Bit rate : 448 Kbps
Channel(s) : 6 channels
Channel positions : Front: L C R, Side: L R, LFE
Sampling rate : 48.0 KHz
Bit depth : 16 bits
Compression mode : Lossy
Stream size : 310 MiB (14%)
Language : English
Default : No
Forced : No
Text #1
ID : 4
Format : UTF-8
Codec ID : S_TEXT/UTF8
Codec ID/Info : UTF-8 Plain Text
Title : Forced
Language : Russian
Default : Yes
Forced : No
Text #2
ID : 5
Format : UTF-8
Codec ID : S_TEXT/UTF8
Codec ID/Info : UTF-8 Plain Text
Title : Full
Language : Russian
Default : No
Forced : No
Text #3
ID : 6
Format : UTF-8
Codec ID : S_TEXT/UTF8
Codec ID/Info : UTF-8 Plain Text
Title : Full
Language : Ukrainian
Default : No
Forced : No
Text #4
ID : 7
Format : UTF-8
Codec ID : S_TEXT/UTF8
Codec ID/Info : UTF-8 Plain Text
Title : Full
Language : English
Default : No
Forced : No
Text #5
ID : 8
Format : UTF-8
Codec ID : S_TEXT/UTF8
Codec ID/Info : UTF-8 Plain Text
Title : SDH
Language : English
Default : No
Forced : No
Text #6
ID : 9
Format : UTF-8
Codec ID : S_TEXT/UTF8
Codec ID/Info : UTF-8 Plain Text
Title : Colored
Language : English
Default : No
Forced : No
Menu
00:00:00.000 : en:Chapter 01
00:05:26.784 : en:Chapter 02
00:08:42.188 : en:Chapter 03
00:12:29.790 : en:Chapter 04
00:17:32.384 : en:Chapter 05
00:22:19.046 : en:Chapter 06
00:25:34.991 : en:Chapter 07
00:30:49.222 : en:Chapter 08
00:35:11.025 : en:Chapter 09
00:41:16.891 : en:Chapter 10
00:46:14.229 : en:Chapter 11
00:49:23.585 : en:Chapter 12
00:54:13.250 : en:Chapter 13
01:00:18.740 : en:Chapter 14
01:04:47.174 : en:Chapter 15
01:10:16.253 : en:Chapter 16
01:14:24.084 : en:Chapter 17
01:18:36.670 : en:Chapter 18
01:26:15.170 : en:Chapter 19
01:31:06.502 : en:Chapter 20

Скриншот c названием фильма

Скриншоты

---
[Профиль] [ЛС]
Кто просматривает тему:

Форум Тема Автор Размер
Pop (Pop) Дискомафия - На соседней улице - 2005, FLAC (image+.cue), lossless sergej644 346 MB
Фильмы (HD Rips | 720p, 1080p) Белый мавр, или Интимные истории о моих соседях (2012) HDTV 1080i от MediaClub Russian Mafia 6.14 GB
Фильмы (HD Rips | 720p, 1080p) Белый мавр, или Интимные истории о моих соседях (2012) WEB-DL 720p Russian Mafia 2.11 GB
Фильмы 2012 года Белый мавр, или Интимные истории о моих соседях (2012) WEB-DLRip-AVC Russian Mafia 1.81 GB
Фильмы (DVD 5/9) Белый мавр, или Интимные истории о моих соседях (Дмитрий Фикс) [2012, Россия, драма, комедия, DVD5] R5 Original Rus TorrentFilm 4.14 GB
Фильмы 2011 года Девушка напротив / Девушка по соседству / The Girl Next Door (Грегори Уилсон / Gregory Wilson) [2007, США, триллер, драма, криминал, BDRip-AVC] MVO + AVO (Алексеев) + Original (Eng) + Subs (Eng) TorrentFilm 2.51 GB
Зарубежные мультфильмы Медведи-соседи / Boonie Bears, to the Rescue! (Динг Лианг, Фуюань Лю) [2014 г.,Китай, Мультфильм, комедия, приключения, полноразмерный, WEB-DLRip] BOSS 1.37 GB
Зарубежные мультфильмы Медведи-соседи: Зимние каникулы / Boonie Bears: Homeward Journey (Фуюань Лью) [2013, мультфильм, комедия, приключения, семейный] WEB-DLRip | Звук с TS BOSS 699 MB
Показать сообщения:    

Текущее время: Сегодня 18:41

Часовой пояс: GMT



Вы не можете начинать темы
Вы не можете отвечать на сообщения
Вы не можете редактировать свои сообщения
Вы не можете удалять свои сообщения
Вы не можете голосовать в опросах
Вы не можете прикреплять файлы к сообщениям
Вы не можете скачивать файлы