Соседи. На тропе войны / Neighbors (2014) WEB-DL [H.264/1080p-LQ] [Line]

 
Автор Сообщение

sergej644 ®

Пол:

Стаж: 4 года 11 месяцев

Сообщений: 6038

Откуда: Soviet Union



Награды: Нет

Торрент-статистика

Создавать темы 13-Авг-2014 21:06

[Цитировать]

-Соседи. На тропе войны / Neighbors (2014) WEB-DL [H.264/1080p-LQ]- Год выпуска: 2014
Производство: США, Good Universe, Point Grey Pictures
Жанр: Комедия
Перевод: Дублированный (Чистый звук)
Субтитры: Отсутствуют
Режиссер: Николас Столлер
Продюсер: Эван Голдберг, Сет Роген, Джеймс Уивер
Актеры: Сет Роген, Зак Эфрон, Роуз Бирн, Элиз Варгас, Зоя Варгас, Брайан Хаски, Айк Баринхолц, Карла Галло, Дэйв Франко, Хелстон Сейдж
Описание фильма:
Как известно, мужчины бывают двух типов: холостые и глубоко женатые. Первые молоды, мускулисты и точно магнит притягивают блондинок и шумных друзей. Вторые обитают дома, выращивают детей и поглощают сериалы по телеку. Обычно их пути не пересекаются. Но стоит им стать соседями, мужчины выходят на тропу войны.

Дата мировой премьеры: 8 марта 2014
Дата российской премьеры: 29 мая 2014, «UPI»
Дата выхода DVD релиза: 18 сентября 2014, «Двадцатый Век Фокс СНГ»
Рейтинг MPAA: PG-17
Возраст: 18+
Продолжительность: 01:36:44
Качество видео: WEB-DL
Видеокодек: MPEG-4 AVC/H.264
Битрейт видео: 3860 kb/s
Размер кадра: 1916x796
Аудио #1: 48 kHz, AC3 Dolby Digital, 2/0 (L,R) ch, 384 kbps (Русский) / Дубляж
Аудио #2: 48 kHz, AC3 Dolby Digital, 3/2 (L,C,R,l,r) + LFE ch, 384 kbps (Английский) / Оригинал

MI

Общее
Уникальный идентификатор                 : 240419681571860434777355909362489056728 (0xB4DF257A341F5FB89D140D0D01295DD8)
Полное имя                               : D:\Мужа\Sosedi.2014.WEB-DL.1080p.NNM-CLUB.mkv
Формат                                   : Matroska
Версия формата                           : Version 4 / Version 2
Размер файла                             : 3,19 Гбайт
Продолжительность                        : 1 ч. 36 м.
Общий поток                              : 4722 Кбит/сек
Дата кодирования                         : UTC 2014-08-13 08:44:50
Программа кодирования                    : mkvmerge v6.9.1 ('Blue Panther') 64bit built on Apr 18 2014 18:23:38
Библиотека кодирования                   : libebml v1.3.0 + libmatroska v1.4.1
Видео
Идентификатор                            : 1
Формат                                   : AVC
Формат/Информация                        : Advanced Video Codec
Профиль формата                          : [url=mailto:High@L4.0]High@L4.0[/url]
Параметр CABAC формата                   : Да
Параметр ReFrames формата                : 5 кадров
Идентификатор кодека                     : V_MPEG4/ISO/AVC
Продолжительность                        : 1 ч. 36 м.
Битрейт                                  : 3860 Кбит/сек
Ширина                                   : 1916 пикселей
Высота                                   : 796 пикселей
Соотношение сторон                       : 2,40:1
Режим частоты кадров                     : Постоянный
Частота кадров                           : 23,976 кадра/сек
Цветовое пространство                    : YUV
Субдискретизация насыщенности            : 4:2:0
Битовая глубина                          : 8 бит
Тип развёртки                            : Прогрессивная
Бит/(Пиксели*Кадры)                      : 0.106
Размер потока                            : 2,61 Гбайт (82%)
Язык                                     : English
Default                                  : Да
Forced                                   : Нет
Основные цвета                           : BT.709
Характеристики трансфера                 : BT.709
Коэффициенты матрицы                     : BT.709
Аудио #1
Идентификатор                            : 2
Формат                                   : AC-3
Формат/Информация                        : Audio Coding 3
Расширение режима                        : CM (complete main)
Параметр Endianness формата              : Big
Идентификатор кодека                     : A_AC3
Продолжительность                        : 1 ч. 36 м.
Вид битрейта                             : Постоянный
Битрейт                                  : 384 Кбит/сек
Каналы                                   : 2 канала
Расположение каналов                     : Front: L R
Частота                                  : 48,0 КГц
Битовая глубина                          : 16 бит
Метод сжатия                             : С потерями
Размер потока                            : 266 Мбайт (8%)
Язык                                     : Russian
Default                                  : Да
Forced                                   : Нет
Аудио #2
Идентификатор                            : 3
Формат                                   : AC-3
Формат/Информация                        : Audio Coding 3
Расширение режима                        : CM (complete main)
Параметр Endianness формата              : Big
Идентификатор кодека                     : A_AC3
Продолжительность                        : 1 ч. 36 м.
Вид битрейта                             : Постоянный
Битрейт                                  : 384 Кбит/сек
Каналы                                   : 6 каналов
Расположение каналов                     : Front: L C R, Side: L R, LFE
Частота                                  : 48,0 КГц
Битовая глубина                          : 16 бит
Метод сжатия                             : С потерями
Размер потока                            : 266 Мбайт (8%)
Язык                                     : English
Default                                  : Нет
Forced                                   : Нет
Меню
00:00:00.000                             : en:1
00:05:28.000                             : en:2
00:08:44.000                             : en:3
00:12:31.000                             : en:4
00:17:34.000                             : en:5
00:22:20.000                             : en:6
00:25:36.000                             : en:7
00:30:51.000                             : en:8
00:35:12.000                             : en:9
00:41:18.000                             : en:10
00:46:16.000                             : en:11
00:49:25.000                             : en:12
00:54:17.000                             : en:13
01:00:20.000                             : en:14
01:04:49.000                             : en:15
01:10:19.000                             : en:16
01:14:25.000                             : en:17
01:18:38.000                             : en:18
01:26:17.000                             : en:19
01:31:08.000                             : en:20
Скриншоты: --
[Профиль] [ЛС]
Кто просматривает тему:

Форум Тема Автор Размер
Pop (Pop) Дискомафия - На соседней улице - 2005, FLAC (image+.cue), lossless sergej644 346 MB
Фильмы (HD Rips | 720p, 1080p) Белый мавр, или Интимные истории о моих соседях (2012) HDTV 1080i от MediaClub Russian Mafia 6.14 GB
Фильмы (HD Rips | 720p, 1080p) Белый мавр, или Интимные истории о моих соседях (2012) WEB-DL 720p Russian Mafia 2.11 GB
Фильмы 2012 года Белый мавр, или Интимные истории о моих соседях (2012) WEB-DLRip-AVC Russian Mafia 1.81 GB
Фильмы (DVD 5/9) Белый мавр, или Интимные истории о моих соседях (Дмитрий Фикс) [2012, Россия, драма, комедия, DVD5] R5 Original Rus TorrentFilm 4.14 GB
Фильмы 2011 года Девушка напротив / Девушка по соседству / The Girl Next Door (Грегори Уилсон / Gregory Wilson) [2007, США, триллер, драма, криминал, BDRip-AVC] MVO + AVO (Алексеев) + Original (Eng) + Subs (Eng) TorrentFilm 2.51 GB
Зарубежные мультфильмы Медведи-соседи / Boonie Bears, to the Rescue! (Динг Лианг, Фуюань Лю) [2014 г.,Китай, Мультфильм, комедия, приключения, полноразмерный, WEB-DLRip] BOSS 1.37 GB
Зарубежные мультфильмы Медведи-соседи: Зимние каникулы / Boonie Bears: Homeward Journey (Фуюань Лью) [2013, мультфильм, комедия, приключения, семейный] WEB-DLRip | Звук с TS BOSS 699 MB
Показать сообщения:    

Текущее время: Сегодня 18:01

Часовой пояс: GMT



Вы не можете начинать темы
Вы не можете отвечать на сообщения
Вы не можете редактировать свои сообщения
Вы не можете удалять свои сообщения
Вы не можете голосовать в опросах
Вы не можете прикреплять файлы к сообщениям
Вы не можете скачивать файлы