Сортировка / Triage (2009) BDRip 1080p | P2

 
Автор Сообщение

Russian Mafia ®

Пол:

Стаж: 1 год 8 месяцев

Сообщений: 4246



Награды: 10 (Подробнее)

Mega Seeder 2 (Количество: 1) Top Releaser 2 (Количество: 1) Top Releaser 3 (Количество: 1)
Торрент-статистика

Создавать темы 20-Июл-2016 18:00

[Цитировать]

Информация о фильме
Название: Сортировка
Оригинальное название: Triage
Год выхода: 2009
Жанр: драма, детектив, военный
Режиссер: Данис Танович
В ролях: Колин Фаррелл, Пас Вега, Джейми Сивес, Келли Райлли, Бранко Джурич, Мозаффар Шафейе, Каржан Шерабаяни, Луис Кальехо, Алекс Спийксма, Йен МакЭлхинни
О фильме:
Два закадычных друга, работающих фотокорреспондентами в горячих точках, готовы рисковать своими жизнями ради сенсационных материалов. Главное, не переступать ту грань, за которой уже нет возврата назад…
Отправившись на очередное задание в охваченный войной Курдистан, они попадают в полевой госпиталь, где становятся свидетелями жестокой и циничной «сортировки» раненых — тяжелых «лечат» выстрелами в голову, а остальных пытаются поставить на ноги.
Ошеломленные происходящим, друзья решают отложить свое возвращение домой и продолжить работу. Они еще не знают, какое тяжкое испытание им предстоит и какую страшную цену придется заплатить за свой последний репортаж…

Страна: Ирландия, Испания, Бельгия, Франция
Студия: Irish Film Board, Parallel Film Productions Ltd., Tornasol Films
Продолжительность: 01:39:30
Перевод: Профессиональный (двухголосый, закадровый) Союз-Видео + Профессиональный (многоголосый, закадровый) Toнic
Релиз:
Файл
Формат: Matroska
Видео: 1920x816 at 24.000 fps , x264@L4.1, ~11500 kbps avg
Аудио#1: Russian: 48 kHz, DTS, 3/2 (L,C,R,l,r) + LFE ch, ~1509 kbps avg |Двухголосый закадровый, Союз-Видео|
Аудио#2: Ukrainian: 48 kHz, AC3, 2/0 (L,R) ch, ~192 kbps avg |Многоголосый закадровый, Toнic|
Аудио#3: English: 48 kHz, DTS-ES, 3/2 (L,C,R,l,r) + LFE ch, ~1509 kbps avg
Субтитры: Russian, English, Danish, Finnish,Norwegian, Swedish
***Сохранены оригинальные главы как на Blu-ray.
***Видеоряд - SbR!
***За украинскую дорожку спасибо: Hurtom.

MI

Общее
Уникальный идентификатор : 200851789966878490468726994789020833693 (0x971AA5CD93969B9DAD295199A835979D)
Полное имя : Triage 2009 1080p BluRay Rus Ukr Eng HDCLUB-SbR.mkv
Формат : Matroska
Версия формата : Version 4 / Version 2
Размер файла : 10,2 Гбайт
Продолжительность : 1 ч. 39 м.
Общий поток : 14,7 Мбит/сек
Дата кодирования : UTC 2016-07-20 15:01:55
Программа кодирования : mkvmerge v8.3.0 ('Over the Horizon') 32bit
Библиотека кодирования : libebml v1.3.1 + libmatroska v1.4.2
Attachements : cover.jpg
Видео
Идентификатор : 1
Формат : AVC
Формат/Информация : Advanced Video Codec
Профиль формата : High@L4.1
Параметр CABAC формата : Да
Параметр ReFrames формата : 5 кадров
Идентификатор кодека : V_MPEG4/ISO/AVC
Продолжительность : 1 ч. 39 м.
Битрейт : 11,5 Мбит/сек
Ширина : 1920 пикселей
Высота : 816 пикселей
Соотношение сторон : 2,35:1
Режим частоты кадров : Постоянный
Частота кадров : 24,000 кадра/сек
Цветовое пространство : YUV
Субдискретизация насыщенности : 4:2:0
Битовая глубина : 8 бит
Тип развёртки : Прогрессивная
Бит/(Пиксели*Кадры) : 0.306
Размер потока : 7,79 Гбайт (76%)
Библиотека кодирования : x264 core 148 r2705+54 9f484c1 t_mod_Custom [8-bit@all X86_64]
Настройки программы : cabac=1 / ref=5 / deblock=1:-3:-3 / analyse=0x3:0x133 / me=esa / subme=9 / psy=1 / fade_compensate=0.00 / psy_rd=1.10:0.05 / mixed_ref=1 / me_range=48 / chroma_me=1 / trellis=2 / 8x8dct=1 / cqm=0 / deadzone=21,11 / fast_pskip=0 / chroma_qp_offset=-3 / threads=6 / lookahead_threads=1 / sliced_threads=0 / nr=0 / decimate=1 / interlaced=0 / bluray_compat=0 / constrained_intra=0 / fgo=0 / bframes=8 / b_pyramid=2 / b_adapt=2 / b_bias=0 / direct=3 / weightb=1 / open_gop=0 / weightp=2 / keyint=250 / keyint_min=23 / scenecut=40 / intra_refresh=0 / rc=2pass / mbtree=0 / bitrate=11500 / ratetol=1.0 / qcomp=0.70 / qpmin=0:0:0 / qpmax=69:69:69 / qpstep=4 / cplxblur=20.0 / qblur=0.5 / ip_ratio=1.30 / pb_ratio=1.20 / aq=1:0.65 / aq-sensitivity=10.00 / aq-factor=1.00:1.00:1.00 / aq2=1:0.60 / aq2-sensitivity=15.00 / aq2-factor=1.00:1.00:1.00 / aq3=1:[0.50:0.50]:[0.50:0.50]:[0.50:0.50]:[0.50:0.50] / aq3-sensitivity=10.00 / aq3-factor=[1.00:1.00]:[1.00:1.00]:[1.00:1.00] / aq3-boundary=192:64:24
Язык : English
Default : Да
Forced : Нет
Цветовой диапазон : Limited
Коэффициенты матрицы : BT.709
Аудио #1
Идентификатор : 2
Формат : DTS
Формат/Информация : Digital Theater Systems
Режим : 16
Параметр Endianness формата : Big
Идентификатор кодека : A_DTS
Продолжительность : 1 ч. 39 м.
Вид битрейта : Постоянный
Битрейт : 1510 Кбит/сек
Каналы : 6 каналов
Расположение каналов : Front: L C R, Side: L R, LFE
Частота : 48,0 КГц
Битовая глубина : 16 бит
Метод сжатия : С потерями
Размер потока : 1,05 Гбайт (10%)
Заголовок : двухголосый закадровый СоюзВидео
Язык : Russian
Default : Да
Forced : Нет
Аудио #2
Идентификатор : 3
Формат : AC-3
Формат/Информация : Audio Coding 3
Расширение режима : CM (complete main)
Параметр Endianness формата : Big
Идентификатор кодека : A_AC3
Продолжительность : 1 ч. 39 м.
Вид битрейта : Постоянный
Битрейт : 192 Кбит/сек
Каналы : 2 канала
Расположение каналов : Front: L R
Частота : 48,0 КГц
Метод сжатия : С потерями
Размер потока : 137 Мбайт (1%)
Заголовок : Многоголосый закадровый TОНIC
Язык : Ukrainian
Default : Нет
Forced : Нет
Аудио #3
Идентификатор : 4
Формат : DTS
Формат/Информация : Digital Theater Systems
Профиль формата : ES
Режим : 16
Параметр Endianness формата : Big
Идентификатор кодека : A_DTS
Продолжительность : 1 ч. 39 м.
Вид битрейта : Постоянный
Битрейт : 1509 Кбит/сек
Каналы : 6 каналов
Расположение каналов : Front: L C R, Side: L R, LFE
Частота : 48,0 КГц
Битовая глубина : 16 бит
Метод сжатия : С потерями
Размер потока : 1,05 Гбайт (10%)
Язык : English
Default : Нет
Forced : Нет
Текст #1
Идентификатор : 5
Формат : UTF-8
Идентификатор кодека : S_TEXT/UTF8
Идентификатор кодека/Информация : UTF-8 Plain Text
Язык : Russian
Default : Нет
Forced : Нет
Текст #2
Идентификатор : 6
Формат : UTF-8
Идентификатор кодека : S_TEXT/UTF8
Идентификатор кодека/Информация : UTF-8 Plain Text
Язык : English
Default : Нет
Forced : Нет
Текст #3
Идентификатор : 7
Формат : UTF-8
Идентификатор кодека : S_TEXT/UTF8
Идентификатор кодека/Информация : UTF-8 Plain Text
Язык : Danish
Default : Нет
Forced : Нет
Текст #4
Идентификатор : 8
Формат : UTF-8
Идентификатор кодека : S_TEXT/UTF8
Идентификатор кодека/Информация : UTF-8 Plain Text
Язык : Finnish
Default : Нет
Forced : Нет
Текст #5
Идентификатор : 9
Формат : UTF-8
Идентификатор кодека : S_TEXT/UTF8
Идентификатор кодека/Информация : UTF-8 Plain Text
Язык : Norwegian
Default : Нет
Forced : Нет
Текст #6
Идентификатор : 10
Формат : UTF-8
Идентификатор кодека : S_TEXT/UTF8
Идентификатор кодека/Информация : UTF-8 Plain Text
Язык : Swedish
Default : Нет
Forced : Нет
Меню
00:00:00.000 : en:00:00:00.000
00:07:53.583 : en:00:07:53.583
00:17:03.625 : en:00:17:03.625
00:25:38.750 : en:00:25:38.750
00:33:52.416 : en:00:33:52.416
00:43:14.625 : en:00:43:14.625
00:50:07.875 : en:00:50:07.875
00:55:50.208 : en:00:55:50.208
01:06:07.541 : en:01:06:07.541
01:13:47.083 : en:01:13:47.083
01:24:39.541 : en:01:24:39.541
01:31:28.166 : en:01:31:28.166

Скриншоты


[Профиль] [ЛС]
Показать сообщения:    

Текущее время: Сегодня 20:11

Часовой пояс: GMT



Вы не можете начинать темы
Вы не можете отвечать на сообщения
Вы не можете редактировать свои сообщения
Вы не можете удалять свои сообщения
Вы не можете голосовать в опросах
Вы не можете прикреплять файлы к сообщениям
Вы не можете скачивать файлы