Сорок сороков (Аркадий Мамонтов) [2015, Документальный, HDTV 1080i]

 
Автор Сообщение

TorrentFilm ®

Пол:

Стаж: 2 года 5 месяцев

Сообщений: 7773



Награды: Нет

Торрент-статистика

Создавать темы 22-Янв-2015 00:00

[Цитировать]

Сорок сороков
Год выпуска: 2015
Страна: Россия
Студия: Авторская стадия Аркадия Мамонтова
Жанр: Документальный
Продолжительность: 00:43:00
Режиссер: Аркадий Мамонтов
Описание: Фильм "Сорок сороков" "Студии Аркадия Мамонтова" посвящен программе строительства православных храмов в Москве.
Столица России всегда славилась своими церквями. "Сорок сороков" означает огромное, бесконечное количество. Так говорили в старину, указывая на обилие храмов в Москве. Однако в буквальном смысле 40 раз по 40 могло получиться не при подсчете церквей, а по количеству престолов: к 1917 году в московских храмах насчитывалось 1620 престолов.
К концу 20 века большинство престолов и храмов в России было уничтожено, взорвано, испорчено. Хрущев к 80-му году обещал показать последнего попа. Советская власть вообще хотела убрать само понятие "вера и церковь".
Сейчас Москва находится на последнем месте среди всех регионов России по соотношению храмов и православного населения. Патриарх Кирилл считает, что для достижения среднего значения по России - 11 тысяч человек на один приход - в столице нужно построить еще 591 храм. Для этого нужны огромные усилия. Сейчас сосредоточились на 380 храмах.
В стенах новых церквей можно увидеть именные кирпичи: Анна, Любовь, Петр, Дмитрий... Храмы по "Программе-200" в Москве строятся исключительно на деньги прихожан. Но несмотря на это, строителям неоднократно приходилось сталкиваться с недовольством местных жителей, протестующих против возведения церкви в их микрорайоне.
Что происходит в жизни горожан, когда рядом с их домом появляется храм, как меняется мировоззрение людей, причастных к этому – архитекторов, художников, строителей, простых москвичей?
Сэмпл: http://multi-up.com/1027975
Тип релиза: HDTV 1080i
Контейнер: TS
Видео: AVC, 1920x1080, 16:9, 9333 Kbps, 25fps
Аудио: MPEG Audio, CBR 224 kbps, 48 kHz, 2ch (stereo)

MediaInfo

Формат : MPEG-TSРазмер файла : 3,03 ГбайтПродолжительность : 43 м.Режим общего битрейта : ПеременныйОбщий поток : 10,1 Мбит/сек
ВидеоИдентификатор : 69 (0x45)Идентификатор меню : 1 (0x1)Формат : AVCФормат/Информация : Advanced Video CodecПрофиль формата : High@L4.0Параметр CABAC формата : ДаПараметр ReFrames формата : 3 кадраИдентификатор кодека : 27Продолжительность : 43 м.Битрейт : 9333 Кбит/секШирина : 1920 пикселейВысота : 1080 пикселейСоотношение сторон : 16:9Частота кадров : 25,000 кадров/секСтандарт вещания : ComponentЦветовое пространство : YUVСубдискретизация насыщенности : 4:2:0Битовая глубина : 8 битТип развёртки : ЧересстрочнаяПорядок развёртки : Верхнее поле первоеБит/(Пиксели*Кадры) : 0.180Размер потока : 2,81 Гбайт (93%)Основные цвета : BT.709Характеристики трансфера : BT.709Коэффициенты матрицы : BT.709
АудиоИдентификатор : 68 (0x44)Идентификатор меню : 1 (0x1)Формат : MPEG AudioВерсия формата : Version 1Профиль формата : Layer 2Идентификатор кодека : 3Продолжительность : 43 м.Вид битрейта : ПостоянныйБитрейт : 224 Кбит/секКаналы : 2 каналаЧастота : 48,0 КГцМетод сжатия : С потерямиРазмер потока : 69,2 Мбайт (2%)Язык : Russian

Скриншоты

[Профиль] [ЛС]
Показать сообщения:    

Текущее время: Сегодня 00:41

Часовой пояс: GMT



Вы не можете начинать темы
Вы не можете отвечать на сообщения
Вы не можете редактировать свои сообщения
Вы не можете удалять свои сообщения
Вы не можете голосовать в опросах
Вы не можете прикреплять файлы к сообщениям
Вы не можете скачивать файлы