Сорок первый (Григорий Чухрай) [1956, драма, DVDRip-AVC]

 
Автор Сообщение

reversefile ®

Пол:

Стаж: 4 года 5 месяцев

Сообщений: 842

Откуда: ReverseFile.org



Награды: Нет

Торрент-статистика

Создавать темы 25-Июл-2014 01:16

[Цитировать]

Сорок первый
Жанр: драма
Год выпуска: 1956
Продолжительность: 01:27:06
Режиссер: Григорий Чухрай
В ролях: Изольда Извицкая, Олег Стриженов, Николай Крючков, Николай Дупак, Георгий Шаповалов, Петр Любешкин, Леонид Ковылин, Юрий Романов, Даниил Нетребин, Асланбек Умуралиев, Анатолий Кокорин, Вадим Синицын, Вадим Захарченко, Александр Гречаный, Муратбек Рыскулов, Сергей Солоницкий
Описание: Снят по одноимённой повести Бориса Лавренёва. Действие драмы происходит на фоне гражданской войны в России. Непримиримые враги, волею случая оказавшись в экстремальных условиях, безнадежно влюбляются друг в друга. Развивается невероятно сильная мелодрама, с очень печальным концом...
Лебединая песня Изольды Извицкой, талант которой больше нигде так не блистал.Качество видео: DVDRip-AVC
Формат видео: MKV
Видео: 696x568@742x568 (1.30:1), 25 fps, AVC (H.264), 2205 kbps avg, 0.223 bit/pixel
Аудио: 48 kHz, AC3, 2 ch, 192 kbps avg

MI

Общее
Уникальный идентификатор : 195437912009073569353066057121899718606 (0x9307F902E96632DEB290EECCE93BA7CE)
Полное имя : D:\КИНО\Сорок первый.mkv
Формат : Matroska
Версия формата : Version 4 / Version 2
Размер файла : 1,46 Гбайт
Продолжительность : 1 ч. 27 м.
Общий поток : 2399 Кбит/сек
Дата кодирования : UTC 2014-07-19 05:53:16
Программа кодирования : mkvmerge v6.9.1 ('Blue Panther') 32bit built on Apr 18 2014 18:15:44
Библиотека кодирования : libebml v1.3.0 + libmatroska v1.4.1
Видео
Идентификатор : 1
Формат : AVC
Формат/Информация : Advanced Video Codec
Профиль формата : High@L4.1
Параметр CABAC формата : Да
Параметр ReFrames формата : 16 кадров
Идентификатор кодека : V_MPEG4/ISO/AVC
Продолжительность : 1 ч. 27 м.
Битрейт : 2205 Кбит/сек
Ширина : 696 пикселей
Высота : 568 пикселей
Соотношение сторон : 4:3
Соотношение сторон в оригинале : 4:3
Режим частоты кадров : Постоянный
Частота кадров : 25,000 кадров/сек
Цветовое пространство : YUV
Субдискретизация насыщенности : 4:2:0
Битовая глубина : 8 бит
Тип развёртки : Прогрессивная
Бит/(Пиксели*Кадры) : 0.223
Размер потока : 1,31 Гбайт (90%)
Библиотека кодирования : x264 core 138 r2358 9e941d1
Настройки программы : cabac=1 / ref=16 / deblock=1:-2:-1 / analyse=0x3:0x133 / me=umh / subme=10 / psy=1 / psy_rd=1.00:0.10 / mixed_ref=1 / me_range=32 / chroma_me=1 / trellis=2 / 8x8dct=1 / cqm=0 / deadzone=21,11 / fast_pskip=0 / chroma_qp_offset=-3 / threads=3 / lookahead_threads=1 / sliced_threads=0 / nr=0 / decimate=1 / interlaced=0 / bluray_compat=0 / constrained_intra=0 / bframes=10 / b_pyramid=2 / b_adapt=2 / b_bias=0 / direct=3 / weightb=1 / open_gop=0 / weightp=2 / keyint=250 / keyint_min=25 / scenecut=40 / intra_refresh=0 / rc_lookahead=60 / rc=2pass / mbtree=1 / bitrate=2205 / ratetol=1.0 / qcomp=0.60 / qpmin=10 / qpmax=51 / qpstep=4 / cplxblur=20.0 / qblur=0.5 / vbv_maxrate=50000 / vbv_bufsize=50000 / nal_hrd=none / ip_ratio=1.40 / aq=1:1.00
Default : Да
Forced : Нет
Аудио
Идентификатор : 2
Формат : AC-3
Формат/Информация : Audio Coding 3
Расширение режима : CM (complete main)
Параметр Endianness формата : Big
Идентификатор кодека : A_AC3
Продолжительность : 1 ч. 27 м.
Вид битрейта : Постоянный
Битрейт : 192 Кбит/сек
Каналы : 2 канала
Расположение каналов : Front: L R
Частота : 48,0 КГц
Битовая глубина : 16 бит
Метод сжатия : С потерями
Размер потока : 120 Мбайт (8%)
Default : Да
Forced : Нет

лог

---[Information] [17.07.2014 14:17:31] avs [info]: 696x568p 92797:87000 @ 25/1 fps (cfr)
---[Information] [17.07.2014 14:17:31] x264 [info]: using SAR=7733/7250
---[Information] [17.07.2014 14:17:31] x264 [info]: using cpu capabilities: MMX2 SSE2Fast LZCNT
---[Information] [17.07.2014 14:17:31] x264 [info]: profile High, level 4.1
---[Information] [18.07.2014 0:12:40] x264 [info]: frame I:640 Avg QP:17.66 size: 44320
---[Information] [18.07.2014 0:12:40] x264 [info]: frame P:28025 Avg QP:20.16 size: 21853
---[Information] [18.07.2014 0:12:40] x264 [info]: frame B:101991 Avg QP:24.21 size: 7843
---[Information] [18.07.2014 0:12:40] x264 [info]: consecutive B-frames: 1.5% 1.4% 5.5% 28.4% 14.7% 42.9% 3.3% 1.0% 0.5% 0.4% 0.3%
---[Information] [18.07.2014 0:12:40] x264 [info]: mb I I16..4: 17.8% 68.1% 14.0%
---[Information] [18.07.2014 0:12:40] x264 [info]: mb P I16..4: 6.3% 16.3% 1.8% P16..4: 33.7% 19.6% 14.0% 0.5% 0.1% skip: 7.6%
---[Information] [18.07.2014 0:12:40] x264 [info]: mb B I16..4: 0.4% 2.2% 0.3% B16..8: 31.3% 13.3% 4.5% direct:11.3% skip:36.7% L0:43.5% L1:36.3% BI:20.2%
---[Information] [18.07.2014 0:12:40] x264 [info]: 8x8 transform intra:69.2% inter:76.4%
---[Information] [18.07.2014 0:12:40] x264 [info]: direct mvs spatial:96.9% temporal:3.1%
---[Information] [18.07.2014 0:12:40] x264 [info]: coded y,uvDC,uvAC intra: 69.1% 74.2% 38.7% inter: 33.5% 25.6% 2.0%
---[Information] [18.07.2014 0:12:40] x264 [info]: i16 v,h,dc,p: 80% 9% 3% 8%
---[Information] [18.07.2014 0:12:40] x264 [info]: i8 v,h,dc,ddl,ddr,vr,hd,vl,hu: 12% 15% 12% 6% 9% 9% 13% 9% 14%
---[Information] [18.07.2014 0:12:40] x264 [info]: i4 v,h,dc,ddl,ddr,vr,hd,vl,hu: 12% 14% 9% 6% 11% 11% 14% 9% 15%
---[Information] [18.07.2014 0:12:40] x264 [info]: i8c dc,h,v,p: 45% 26% 18% 11%
---[Information] [18.07.2014 0:12:40] x264 [info]: Weighted P-Frames: Y:29.5% UV:14.8%
---[Information] [18.07.2014 0:12:40] x264 [info]: ref P L0: 33.0% 10.2% 15.3% 8.0% 6.3% 5.1% 4.4% 2.8% 2.6% 2.2% 2.1% 1.9% 1.8% 1.6% 1.6% 1.2%
---[Information] [18.07.2014 0:12:40] x264 [info]: ref B L0: 71.4% 10.7% 4.4% 2.7% 2.0% 1.8% 1.4% 1.0% 0.9% 0.9% 0.7% 0.7% 0.6% 0.5% 0.3%
---[Information] [18.07.2014 0:12:40] x264 [info]: ref B L1: 94.8% 5.2%
---[Information] [18.07.2014 0:12:40] x264 [info]: kb/s:2205.40
---[Information] [18.07.2014 0:12:40] encoded 130656 frames, 3.66 fps, 2205.40 kb/s

скриншоты

[Профиль] [ЛС]

Создавать темы 06-Авг-2015 22:06 (спустя 1 год)

Топик был перенесен из форума Кино СССР в форум Кино СССР
sergej644
 
Кто просматривает тему:

Форум Тема Автор Размер
Фильмы (DVD 5/9) Время счастья (Дмитрий Сорокин) [2008 г., Мелодрама, DVD5] TorrentFilm 4.17 GB
Фантастика и фэнтези Доронин Алексей - Черный день 2. Сорок дней спустя (2013) MP3 Swager 659 MB
Отечественные cериалы Женщина без чувства юмора / Серии: 1-4 из 4 (Дмитрий Сорокин) [2016, детектив,криминал, SATRip-AVC] Aleksan66 2.29 GB
Отечественные cериалы Партия для чемпионки / Сорокалетняя мамаша [01-04 из 04] (2013) HDTVRip 720p Белочка 5.38 GB
Отечественные cериалы Потерявшие солнце [01-06 из 06] (Вячеслав Сорокин, Игорь Зайцев)[2005, Драма, криминал, детектив, DVDRip] sergej644 4.1 GB
Отечественные cериалы Сельский учитель [01-08 из 08] (Дмитрий Сорокин) [2015, Мелодрама] SATRip BOSS 4.95 GB
Фильмы (DVD 5/9) Сорок первый (Яков Протазанов) [1926, СССР, Драма, экранизация, немой, DVD5] Music track, Rus intertitles TorrentFilm 2.45 GB
Документальные HD Сорок сороков (Аркадий Мамонтов) [2015, Документальный, HDTV 1080i] TorrentFilm 3.03 GB
Показать сообщения:    

Текущее время: Сегодня 06:30

Часовой пояс: GMT



Вы не можете начинать темы
Вы не можете отвечать на сообщения
Вы не можете редактировать свои сообщения
Вы не можете удалять свои сообщения
Вы не можете голосовать в опросах
Вы не можете прикреплять файлы к сообщениям
Вы не можете скачивать файлы