Сорвиголова / Daredevil (Сезон 1, Серия 1-13 из 13) (Фил Абрахам, Стивен С. ДеНайт, Кен Джиротти) [2015, Фантастика, боевик , WEB-DLRip-AVC 720p] [DD5.1] [MVO] [LostFilm ,NewStudio ,Jaskier , BaibaKo ,Ideafilm + Subs Rus,ENG]

 
Автор Сообщение

Враг Нароода ®

Стаж: 1 год 8 месяцев

Сообщений: 112



Награды: 2 (Подробнее)

Mega Seeder 1 (Количество: 1) За внесенный вклад в развитие сайта (Количество: 1)
Торрент-статистика

Создавать темы 08-Июл-2015 10:25

[Цитировать]

-- --Сорвиголова / Daredevil Сезон 1, Серия 1-13 из 13 -- --Год выпуска: 2015
Выпущено:США, ABC Television Studio, Marvel Entertainment, Walt Disney Company
Жанр: Фантастика, боевик
Продолжительность: 00:53:00
Сезон: 1
Серия: 1-13
Количество серий в сезоне: 13
Озвучка 1: Профессиональный многоголосый - LostFilm
Озвучка 2: Профессиональный многоголосый -NewStudio
Озвучка 3: Профессиональный многоголосый - Jaskier
Озвучка 4: Профессиональный многоголосый - BaibaKo
Озвучка 5: Профессиональный многоголосый -Ideafilm
Субтитры: Русские, Английские--Сайт сериала:
--Режиссер: Фил Абрахам, Стивен С. ДеНайт, Кен Джиротти--В ролях:Чарли Кокс, Дебора Энн Уолл, Элден Хенсон, Розарио Доусон, Винсент Д`Онофрио, Айелет Зурер, Боб Гантон, Тоби Мур, Вонди Куртис-Холл, Роб Морган-- «Сорвиголова» — криминальный супергеройский боевик совместного производства Marvel Television и ABC Studios, который транслировался на платформе потокового видеосервиса Netflix. В основу нового телешоу легла серия графических романов о незрячем борце с преступностью Мэтте Мердоке. Рассчитанный на более взыскательную аудиторию, сериал отличается непривычной для проектов компании Marvel мрачной стилистикой, реалистичной атмосферой, приземленными персонажами и изображением настоящих бед вроде коррупции. Сериал о Сорвиголове заложил основу для формирования новой команды супергероев, в которую войдут также Джессика Джонс, Люк Кейдж и Железный кулак. Шоу стало первым из пяти проектов об этих «новых Мстителях», которые в дальнейшем будут объединены в мини-сериал «Защитники».. Сюжет:
После битвы Мстителей с инопланетными захватчиками читаури Нью-Йорк стал небезопасным местом. Мафиозные банды начали бороться за сферы влияния, а теневой бизнес — процветать. Концентрацией беззакония оказался самый нищий район мегаполиса — Адская кухня. Здесь опасно выходить на улицу по вечерам, за взятку можно купить даже человеческую жизнь, а продажных полицейских нужно бояться больше, чем случайных воров. Во главе местных криминальных элементов стоит вездесущий хладнокровный монстр Уилсон Фиск (Винсент Д`Онофрио), который хочет распространить свою власть на весь город и полностью изменить его облик. Помешать планам будущего Кингпина может лишь один человек — невесть откуда взявшийся каратель в черной маске. Сорвиголова (Чарли Кокс) потерял зрение в детстве, что не мешает ему ловко ориентироваться в пространстве. Он чувствует приближение врага за километр по запаху одеколона, слышит тайные разговоры через толстые стены и может определить ложь по биению сердца. Однако под маской линчевателя скрывается обычный человек, законопослушный адвокат и ревностный католик Мэтт Мердок. Молодому юристу придется перешагнуть через мораль и побороть зло, не выдав свой секрет, иначе и ему, и его близким несдобровать, ведь Мэтт умудрился обернуть против себя всех самых безжалостных и свирепых головорезов Адской кухни.
-- --Качество : WEB-DLRip-AVC 720p
Формат: MKV
Видео кодек: H264
Видео: 6301Кбит/сек,1280х720(16.9),в 23.976кадр/сек,AVC(PAL)(High@L4)(CABAC/3 Ref Frames)
Аудио Кодек:AC3
Аудио #1:AC3 , 384 Kbps, 48.0 KHz, 6 ch- - LostFilm
Аудио #2: AC3, 384 Kbps, 48.0 KHz, 6 ch - -NewStudio
Аудио #3: AC3, 384 Kbps, 48.0 KHz, 6 ch - - Jaskier
Аудио #4: AC3, 384 Kbps, 48.0 KHz, 6 ch - - BaibaKo
Аудио #5: AC3, 384 Kbps, 48.0 KHz,6 ch - -Ideafilm
Аудио #6: AC3, 384 Kbps, 48.0 KHz,6 ch - - English--

Доп. информация:

Звуковая дорожка сделана путем наложения чистого голоса озвучивателей на центральный канал оригинальной дорожки. Качество идентично звуковой дорожке.
--

Список эпизодов сезона


01 На ринге (Into the Ring)
02 1Истерзанный (Cut Man)
03 Кролик в снежной буре (Rabbit in a Snowstorm)
04 В крови (In the Blood)
05 Мир в огне (World on Fire)
06 Приговоренные (Condemned)
07 Стик (Stick)
08 Тени на стекле (Shadows in the Glass)
09 Помяни дьявола (Speak of the Devil)
10 Нельсон против Мёрдока (Nelson v. Murdock)
11 Путь праведника (The Path of the Righteous)
12 Оставленные позади (The Ones We Leave Behind)
13 Сорвиголова (Daredevil)
--

MediaInfo сезона

Общее
Уникальный идентификатор : 50891938253034041316571994747121903036 (0x26496E47A8EB8F371F5119A194A725BC)
Полное имя : D:\С Е Р И А Л Ы\СОРВИГОЛОВА\Daredevil_2015_S01_RUS_ENG[LostFilm_ NewStudio_Jaskier_BaibaKo_Ideafilm]_H264_DD5.1_Nikolai.Baranov_WEB-DLRip-AVC_720p\Daredevil_S01Е02_RUS_ENG[LostFilm_ NewStudio_Jaskier_BaibaKo_Ideafilm]_N.B_WEB-DLRip.mkv
Формат : Matroska
Версия формата : Version 1
Размер файла : 3,22 Гбайт
Продолжительность : 52 м.
Режим общего битрейта : Переменный
Общий поток : 8780 Кбит/сек
Программа кодирования : DivXMKVMux 9.9.13.1955
Библиотека кодирования : libDivXMediaFormat 4.0.0.0578
Видео
Идентификатор : 1
Формат : AVC
Формат/Информация : Advanced Video Codec
Профиль формата : High@L4
Параметр CABAC формата : Да
Параметр ReFrames формата : 3 кадра
Идентификатор кодека : V_MPEG4/ISO/AVC
Продолжительность : 52 м.
Вид битрейта : Переменный
Битрейт : 6301 Кбит/сек
Максимальный битрейт : 20,0 Мбит/сек
Ширина : 1280 пикселей
Высота : 720 пикселей
Соотношение сторон : 16:9
Режим частоты кадров : Постоянный
Частота кадров : 23,976 кадра/сек
Стандарт вещания : PAL
Цветовое пространство : YUV
Субдискретизация насыщенности : 4:2:0
Битовая глубина : 8 бит
Тип развёртки : Прогрессивная
Бит/(Пиксели*Кадры) : 0.285
Размер потока : 2,31 Гбайт (72%)
Язык : English
Default : Да
Forced : Нет
Цветовой диапазон : Limited
Основные цвета : BT.709
Характеристики трансфера : BT.709
Коэффициенты матрицы : BT.709
Аудио #1
Идентификатор : 2
Формат : AC-3
Формат/Информация : Audio Coding 3
Расширение режима : CM (complete main)
Параметр Endianness формата : Big
Идентификатор кодека : A_AC3
Продолжительность : 52 м.
Вид битрейта : Постоянный
Битрейт : 384 Кбит/сек
Каналы : 6 каналов
Расположение каналов : Front: L C R, Side: L R, LFE
Частота : 48,0 КГц
Битовая глубина : 16 бит
Метод сжатия : С потерями
Размер потока : 144 Мбайт (4%)
Язык : English
Default : Да
Forced : Нет
Аудио #2
Идентификатор : 3
Формат : AC-3
Формат/Информация : Audio Coding 3
Расширение режима : CM (complete main)
Параметр Endianness формата : Big
Идентификатор кодека : A_AC3
Продолжительность : 52 м.
Вид битрейта : Постоянный
Битрейт : 384 Кбит/сек
Каналы : 6 каналов
Расположение каналов : Front: L C R, Side: L R, LFE
Частота : 48,0 КГц
Битовая глубина : 16 бит
Метод сжатия : С потерями
Размер потока : 144 Мбайт (4%)
Язык : English
Default : Нет
Forced : Нет
Аудио #3
Идентификатор : 4
Формат : AC-3
Формат/Информация : Audio Coding 3
Расширение режима : CM (complete main)
Параметр Endianness формата : Big
Идентификатор кодека : A_AC3
Продолжительность : 52 м.
Вид битрейта : Постоянный
Битрейт : 384 Кбит/сек
Каналы : 6 каналов
Расположение каналов : Front: L C R, Side: L R, LFE
Частота : 48,0 КГц
Битовая глубина : 16 бит
Метод сжатия : С потерями
Размер потока : 144 Мбайт (4%)
Язык : English
Default : Нет
Forced : Нет
Аудио #4
Идентификатор : 5
Формат : AC-3
Формат/Информация : Audio Coding 3
Расширение режима : CM (complete main)
Параметр Endianness формата : Big
Идентификатор кодека : A_AC3
Продолжительность : 52 м.
Вид битрейта : Постоянный
Битрейт : 384 Кбит/сек
Каналы : 6 каналов
Расположение каналов : Front: L C R, Side: L R, LFE
Частота : 48,0 КГц
Битовая глубина : 16 бит
Метод сжатия : С потерями
Размер потока : 144 Мбайт (4%)
Язык : English
Default : Нет
Forced : Нет
Аудио #5
Идентификатор : 6
Формат : AC-3
Формат/Информация : Audio Coding 3
Расширение режима : CM (complete main)
Параметр Endianness формата : Big
Идентификатор кодека : A_AC3
Продолжительность : 52 м.
Вид битрейта : Постоянный
Битрейт : 384 Кбит/сек
Каналы : 6 каналов
Расположение каналов : Front: L C R, Side: L R, LFE
Частота : 48,0 КГц
Битовая глубина : 16 бит
Метод сжатия : С потерями
Размер потока : 144 Мбайт (4%)
Язык : English
Default : Нет
Forced : Нет
Аудио #6
Идентификатор : 7
Формат : AC-3
Формат/Информация : Audio Coding 3
Расширение режима : CM (complete main)
Параметр Endianness формата : Big
Идентификатор кодека : A_AC3
Продолжительность : 52 м.
Вид битрейта : Постоянный
Битрейт : 384 Кбит/сек
Каналы : 6 каналов
Расположение каналов : Front: L C R, Side: L R, LFE
Частота : 48,0 КГц
Битовая глубина : 16 бит
Метод сжатия : С потерями
Размер потока : 144 Мбайт (4%)
Язык : English
Default : Нет
Forced : Нет
Текст #1
Идентификатор : 8
Формат : UTF-8
Идентификатор кодека : S_TEXT/UTF8
Идентификатор кодека/Информация : UTF-8 Plain Text
Язык : English
Default : Да
Forced : Нет
Текст #2
Идентификатор : 9
Формат : UTF-8
Идентификатор кодека : S_TEXT/UTF8
Идентификатор кодека/Информация : UTF-8 Plain Text
Язык : Russian
Default : Нет
Forced : Нет
Текст #3
Идентификатор : 10
Формат : UTF-8
Идентификатор кодека : S_TEXT/UTF8
Идентификатор кодека/Информация : UTF-8 Plain Text
Язык : English
Default : Нет
Forced : Нет
--

Скриншоты

-- --

Как закачать отдельный файл

1. Открыть торрент
2. Снять галки с тех файлов торрента, которые мы не хотим закачивать. Оставляем только на нужных нам файлах (файле).
3. Нажать О.К.
В клиенте utorrent
Инструкция
1) Открыть торрент

2) Снять галки с тех файлов торрента, которые мы не хотим закачивать:
* либо вручную, снимая с каждого файла галку( скрин №1)
* либо, нажав кнопку "Снять метки (Select None)", сняв сразу со всех файлов(скрин №2)
№1

№2

Оставляем только на нужных нам файлах (файле).

3)Нажать О.К
-- -- --Релиз от: Nikolai.Baranov -- -- -- --
[Профиль] [ЛС]
Показать сообщения:    

Текущее время: Сегодня 07:10

Часовой пояс: GMT



Вы не можете начинать темы
Вы не можете отвечать на сообщения
Вы не можете редактировать свои сообщения
Вы не можете удалять свои сообщения
Вы не можете голосовать в опросах
Вы не можете прикреплять файлы к сообщениям
Вы не можете скачивать файлы