Сонная Лощина / Sleepy Hollow (1999) BDRemux 1080i от NovaLan | JPN Transfer

 
Автор Сообщение

Russian Mafia ®

Пол:

Стаж: 1 год 8 месяцев

Сообщений: 4257



Награды: 10 (Подробнее)

Mega Seeder 5 (Количество: 1) Mega Seeder 1 (Количество: 1) Mega Seeder 3 (Количество: 1)
Торрент-статистика

Создавать темы 09-Сен-2015 12:31

[Цитировать]

Название: Сонная Лощина
Оригинальное название: Sleepy Hollow
Год выхода: 1999
Жанр: Ужасы, криминал, мистика, фэнтези, приключения, триллер
Режиссер: Тим Бертон
В ролях: Джонни Депп, Кристина Риччи, Кристофер Уокен, Миранда Ричардсон, Майкл Гэмбон, Каспер Ван Дин, Джеффри Джонс, Кристофер Ли, Ричард Гриффитс, Иэн МакДайармид, Майкл Гоф, Лиза Мари
О фильме:
Голова на плечах необходима при любых обстоятельствах, особенно если в ней много прогрессивных научных мыслей, помогающих ответственному и целеустремленному молодому констеблю, даже несмотря на далёкий 1799 год, успешно выполнять свои нелегкие служебные обязанности. Но однажды обстоятельства вынуждают его оказаться в окутанном ночными туманами и страшными событиями городке, где как раз-таки жертвы загадочных убийств и не могут похвастаться наличием на плечах голов! Не понятно? Да! Пугающе? До обморочной дрожи! Но если твердо верить в то, что не всё является таким, каким кажется на первых взгляд, то возможно именно эта вера и есть то единственное, что можно противопоставить нарастающему жуткому конскому топоту, что звучит в ночи по-настоящему адской музыкой!...

Страна: Германия, США, American Zoetrope, Karol Film Productions, Mandalay Pictures, Paramount Pictures
Продолжительность: 01:45:15
Перевод: Дублированный / Профессиональный многоголосый (СуперБит) / Профессиональный многоголосый (НТВ+) / Профессиональный многоголосый (R5) / Профессиональный двухголосый (Премьер) / Авторский одноголосый (Гаврилов)
Кодек: H.264
Качество: Blu-Ray Remux 1080i
Видео: MPEG-4 AVC, 34.7 Мбит/с, 1920x1080, 29.970 кадр/с
Звук: Русский (DTS-HD MA, 6 ch, 2056 Кбит/с), (DTS-HD MA, 6 ch, 2008 Кбит/с), (AC3, 6 ch, 448 Кбит/с), (AC3, 6 ch, 384 Кбит/с), (AC3, 2 ch, 224 Кбит/с), (AC3, 2 ch, 256 Кбит/с), английский (DTS-HD MA, 6 ch, 2023 Кбит/с), (AC3, 2 ch, 192 Кбит/с)
Субтитры: Русские, английские

Инфо-файл

Полное имя : E:Раздачи_ESleepy.Hollow.1999.BDRemux.1080i.NovaLan.mkv
Формат : Matroska
Версия формата : Version 4 / Version 2
Размер файла : 31,7 Гбайт
Продолжительность : 1 ч. 45 м.
Режим общего битрейта : Переменный
Общий поток : 43,1 Мбит/сек
Название фильма : Sleepy Hollow 1999 - NovaLan
Дата кодирования : UTC 2014-03-07 14:52:21
Программа кодирования : mkvmerge v6.8.0 ('Theme for Great Cities') 64bit built on Mar 2 2014 21:34:26
Библиотека кодирования : libebml v1.3.0 + libmatroska v1.4.1
Видео
Идентификатор : 1
Формат : AVC
Формат/Информация : Advanced Video Codec
Профиль формата : High@L4.1
Параметр CABAC формата : Да
Параметр ReFrames формата : 2 кадра
Идентификатор кодека : V_MPEG4/ISO/AVC
Продолжительность : 1 ч. 45 м.
Вид битрейта : Переменный
Битрейт : 34,7 Мбит/сек
Ширина : 1920 пикселей
Высота : 1080 пикселей
Соотношение сторон : 16:9
Режим частоты кадров : Переменный
Частота кадров : 29,970 кадров/сек
Цветовое пространство : YUV
Субдискретизация насыщенности : 4:2:0
Битовая глубина : 8 бит
Тип развёртки : Прогрессивная
Бит/(Пиксели*Кадры) : 0.558
Размер потока : 25,5 Гбайт (80%)
Заголовок : Sleepy Hollow 1999 - NovaLan
Default : Да
Forced : Нет
Аудио #1
Идентификатор : 2
Формат : DTS
Формат/Информация : Digital Theater Systems
Профиль формата : MA / Core
Идентификатор кодека : A_DTS
Продолжительность : 1 ч. 45 м.
Вид битрейта : Переменный
Битрейт : 2056 Кбит/сек / 1510 Кбит/сек
Каналы : 6 каналов
Расположение каналов : Front: L C R, Side: L R, LFE
Частота : 48,0 КГц
Битовая глубина : 16 бит
Метод сжатия : Без потерь / Lossy
Язык : Russian
Default : Да
Forced : Нет
Аудио #2
Идентификатор : 3
Формат : DTS
Формат/Информация : Digital Theater Systems
Профиль формата : MA / Core
Идентификатор кодека : A_DTS
Продолжительность : 1 ч. 45 м.
Вид битрейта : Переменный
Битрейт : 2008 Кбит/сек / 1510 Кбит/сек
Каналы : 6 каналов
Расположение каналов : Front: L C R, Side: L R, LFE
Частота : 48,0 КГц
Битовая глубина : 16 бит
Метод сжатия : Без потерь / Lossy
Язык : Russian
Default : Нет
Forced : Нет
Аудио #3
Идентификатор : 4
Формат : AC-3
Формат/Информация : Audio Coding 3
Расширение режима : CM (complete main)
Параметр Endianness формата : Big
Идентификатор кодека : A_AC3
Продолжительность : 1 ч. 45 м.
Вид битрейта : Постоянный
Битрейт : 448 Кбит/сек
Каналы : 6 каналов
Расположение каналов : Front: L C R, Side: L R, LFE
Частота : 48,0 КГц
Битовая глубина : 16 бит
Метод сжатия : С потерями
Размер потока : 338 Мбайт (1%)
Язык : Russian
Default : Нет
Forced : Нет
Аудио #4
Идентификатор : 5
Формат : AC-3
Формат/Информация : Audio Coding 3
Расширение режима : CM (complete main)
Параметр Endianness формата : Big
Идентификатор кодека : A_AC3
Продолжительность : 1 ч. 45 м.
Вид битрейта : Постоянный
Битрейт : 384 Кбит/сек
Каналы : 6 каналов
Расположение каналов : Front: L C R, Side: L R, LFE
Частота : 48,0 КГц
Битовая глубина : 16 бит
Метод сжатия : С потерями
Размер потока : 289 Мбайт (1%)
Язык : Russian
Default : Нет
Forced : Нет
Аудио #5
Идентификатор : 6
Формат : AC-3
Формат/Информация : Audio Coding 3
Расширение режима : CM (complete main)
Параметр Endianness формата : Big
Идентификатор кодека : A_AC3
Продолжительность : 1 ч. 45 м.
Вид битрейта : Постоянный
Битрейт : 224 Кбит/сек
Каналы : 2 канала
Расположение каналов : Front: L R
Частота : 48,0 КГц
Битовая глубина : 16 бит
Метод сжатия : С потерями
Размер потока : 169 Мбайт (1%)
Язык : Russian
Default : Нет
Forced : Нет
Аудио #6
Идентификатор : 7
Формат : AC-3
Формат/Информация : Audio Coding 3
Расширение режима : CM (complete main)
Параметр Endianness формата : Big
Идентификатор кодека : A_AC3
Продолжительность : 1 ч. 45 м.
Вид битрейта : Постоянный
Битрейт : 256 Кбит/сек
Каналы : 2 канала
Расположение каналов : Front: L R
Частота : 48,0 КГц
Битовая глубина : 16 бит
Метод сжатия : С потерями
Размер потока : 193 Мбайт (1%)
Язык : Russian
Default : Нет
Forced : Нет
Аудио #7
Идентификатор : 8
Формат : DTS
Формат/Информация : Digital Theater Systems
Профиль формата : MA / Core
Идентификатор кодека : A_DTS
Продолжительность : 1 ч. 45 м.
Вид битрейта : Переменный
Битрейт : 2023 Кбит/сек / 1510 Кбит/сек
Каналы : 6 каналов
Расположение каналов : Front: L C R, Side: L R, LFE
Частота : 48,0 КГц
Битовая глубина : 16 бит
Метод сжатия : Без потерь / Lossy
Язык : English
Default : Нет
Forced : Нет
Аудио #8
Идентификатор : 9
Формат : AC-3
Формат/Информация : Audio Coding 3
Расширение режима : CM (complete main)
Параметр Endianness формата : Big
Идентификатор кодека : A_AC3
Продолжительность : 1 ч. 45 м.
Вид битрейта : Постоянный
Битрейт : 192 Кбит/сек
Каналы : 2 канала
Расположение каналов : Front: L R
Частота : 48,0 КГц
Битовая глубина : 16 бит
Метод сжатия : С потерями
Размер потока : 145 Мбайт (0%)
Язык : English
Default : Нет
Forced : Нет
Текст #1
Идентификатор : 10
Формат : UTF-8
Идентификатор кодека : S_TEXT/UTF8
Идентификатор кодека/Информация : UTF-8 Plain Text
Язык : Russian
Default : Да
Forced : Нет
Текст #2
Идентификатор : 11
Формат : UTF-8
Идентификатор кодека : S_TEXT/UTF8
Идентификатор кодека/Информация : UTF-8 Plain Text
Язык : English
Default : Нет
Forced : Нет
Меню
00:00:00.000 : en:Chapter 1
00:03:41.221 : en:Chapter 2
00:07:12.098 : en:Chapter 3
00:13:30.976 : en:Chapter 4
00:19:09.181 : en:Chapter 5
00:26:59.117 : en:Chapter 6
00:29:38.977 : en:Chapter 7
00:36:32.356 : en:Chapter 8
00:42:06.524 : en:Chapter 9
00:46:42.166 : en:Chapter 10
00:52:17.334 : en:Chapter 11
00:58:05.648 : en:Chapter 12
01:03:15.291 : en:Chapter 13
01:10:03.232 : en:Chapter 14
01:14:40.509 : en:Chapter 15
01:18:59.267 : en:Chapter 16
01:23:19.160 : en:Chapter 17
01:31:09.297 : en:Chapter 18
01:38:25.733 : en:Chapter 19
Исходник: JPN Transfer... спасибо kukushka
Релиз группа NovaLan
Автор сборки Sergei7721


[Профиль] [ЛС]
Показать сообщения:    

Текущее время: Сегодня 06:26

Часовой пояс: GMT



Вы не можете начинать темы
Вы не можете отвечать на сообщения
Вы не можете редактировать свои сообщения
Вы не можете удалять свои сообщения
Вы не можете голосовать в опросах
Вы не можете прикреплять файлы к сообщениям
Вы не можете скачивать файлы