Сонная лощина / Sleepy Hollow (1999) BDRip-AVC

 
Автор Сообщение

Russian Mafia ®

Пол:

Стаж: 1 год 8 месяцев

Сообщений: 4257



Награды: 10 (Подробнее)

Mega Seeder 4 (Количество: 1) Top Releaser 2 (Количество: 1) Top Releaser 4 (Количество: 1)
Торрент-статистика

Создавать темы 09-Сен-2015 12:29

[Цитировать]

Сонная лощина
Sleepy Hollow
«Вы можете запереть двери. Вы можете закрыть окна. Но сможете ли вы пережить эту ночь?»

Страна: США
Жанр: ужасы, фэнтези, триллер, детектив
Год выпуска: 1999
Продолжительность: 01:45:15
Перевод: Профессиональный (полное дублирование) [МосФильм Мастер]
Cубтитры: Русские, Английские
Оригинальная аудиодорожка: нет
Режиссер:
Тим Бертон / Tim Burton
В ролях:
Джонни Депп, Миранда Ричардсон, Кристина Риччи, Майкл Гэмбон, Каспер Ван Дьен, Джеффри Джонс, Ричард Гриффитс, Иэн МакДайармид, Майкл Гаф, Кристофер Уокен, Марк Пикеринг, Лиза Мари, Стивен Уоддингтон, Клер Скиннер, Кристофер Ли
Описание:
Нью-Йорк, 1799 год. Икабода Крэйна, молодого констебля, отправляют в местечко Сонная лощина для расследования загадочных убийств. Все жертвы, как сообщает местное население, погибают от меча всадника без головы.
Все они обезглавлены, а головы исчезли. Крэйну приходится убедиться, что это не легенда, а страшная правда. Становится очевидно, что убийца приходит с того света, что в преступлениях замешаны ведьмы и иная нечисть. Всадника нельзя убить пулей, всех смельчаков он побеждает в схватках. Но каковы мотивы злодеяний?..

Качество видео: BDRip-AVC
Формат видео: MKV
Видео кодек: AVC
Аудио кодек: AC3
Видео: 1783 Кбит/сек, 864*468 (16:9), в 23,976 кадр/сек, AVC
Аудио: Russian, 192 Кбит/сек, 48,0 КГц, 16 бит, 2 канала(ов), AC-3

MediaInfo

Общее
Уникальный идентификатор : 181988824390589636517536979186957883336 (0x88E9C5CBFB5D51A8B8D1E28AB9DB17C8)
Полное имя : L:рипыSleepy HollowSonnaja.loshhina.1999.BDRip-AVC.Dub.1.45Gb...stalkerok.new-team.mkv
Формат : Matroska
Размер файла : 1,45 Гбайт
Продолжительность : 1 ч. 45 м.
Общий поток : 1977 Кбит/сек
Название фильма : Sleepy Hollow, 1999 (New-Team) (Rip by Stalker oK)
Дата кодирования : UTC 2015-06-22 19:15:48
Программа кодирования : mkvmerge v7.9.0 ('Birds') 64bit
Библиотека кодирования : libebml v1.3.1 + libmatroska v1.4.2
Видео
Идентификатор : 1
Формат : AVC
Формат/Информация : Advanced Video Codec
Профиль формата : High@L4.1
Параметр CABAC формата : Да
Параметр ReFrames формата : 12 кадры
Идентификатор кодека : V_MPEG4/ISO/AVC
Продолжительность : 1 ч. 45 м.
Битрейт : 1783 Кбит/сек
Ширина : 864 пикс.
Высота : 468 пикс.
Соотношение сторон : 16:9
Частота кадров : 23,976 кадр/сек
Цветовое пространство : YUV
Подвыборка цветности : 4:2:0
Битовая глубина : 8 бит
Тип развёртки : Прогрессивная
Бит/(Пиксели*Кадры) : 0.184
Размер потока : 1,28 Гбайт (88%)
Библиотека кодирования : x264 core 146 r2538kMod 121396c
Настройки программы : cabac=1 / ref=12 / deblock=1:-2:-1 / analyse=0x3:0x133 / me=umh / subme=11 / psy=1 / fade_compensate=0.00 / psy_rd=1.08:0.05 / mixed_ref=1 / me_range=32 / chroma_me=1 / trellis=2 / 8x8dct=1 / cqm=0 / deadzone=21,11 / fast_pskip=0 / chroma_qp_offset=-3 / threads=12 / lookahead_threads=3 / sliced_threads=0 / nr=0 / decimate=0 / interlaced=0 / bluray_compat=0 / constrained_intra=0 / fgo=0 / bframes=14 / b_pyramid=2 / b_adapt=2 / b_bias=0 / direct=3 / weightb=1 / open_gop=0 / weightp=2 / keyint=240 / keyint_min=23 / scenecut=40 / intra_refresh=0 / rc_lookahead=40 / rc=2pass / mbtree=0 / bitrate=1783 / ratetol=1.0 / qcomp=0.70 / qpmin=0 / qpmax=69 / qpstep=4 / cplxblur=20.0 / qblur=0.5 / vbv_maxrate=50000 / vbv_bufsize=62500 / nal_hrd=none / filler=0 / ip_ratio=1.40 / pb_ratio=1.30 / aq=2:1.00
Аудио
Идентификатор : 2
Формат : AC-3
Формат/Информация : Audio Coding 3
Расширение режима : CM (complete main)
Идентификатор кодека : A_AC3
Продолжительность : 1 ч. 45 м.
Вид битрейта : Постоянный
Битрейт : 192 Кбит/сек
Канал(ы) : 2 канала(ов)
Расположение каналов : Front: L R
Частота : 48,0 КГц
Битовая глубина : 16 бит
Метод сжатия : С потерями
Размер потока : 145 Мбайт (10%)
Язык : Russian
Текст #1
Идентификатор : 3
Формат : UTF-8
Идентификатор кодека : S_TEXT/UTF8
Идентификатор кодека/Информация : UTF-8 Plain Text
Заголовок : Russian - v.1
Язык : Russian
Текст #2
Идентификатор : 4
Формат : UTF-8
Идентификатор кодека : S_TEXT/UTF8
Идентификатор кодека/Информация : UTF-8 Plain Text
Заголовок : Russian - v.2
Язык : Russian
Текст #3
Идентификатор : 5
Формат : UTF-8
Идентификатор кодека : S_TEXT/UTF8
Идентификатор кодека/Информация : UTF-8 Plain Text
Заголовок : По переводу НТВ+ (zaxxy)
Язык : Russian
Текст #4
Идентификатор : 6
Формат : UTF-8
Идентификатор кодека : S_TEXT/UTF8
Идентификатор кодека/Информация : UTF-8 Plain Text
Заголовок : English
Язык : English
Меню
00:00:00.000 : en:Opening Titles / Van Garrett
00:07:12.056 : en:Ichabod's Put to the Test
00:11:16.592 : en:The Heads Are Gone?
00:19:09.189 : en:A Seed of Evil
00:25:23.396 : en:Scientific Investigation
00:32:38.790 : en:Five Victims, Four Graves
00:39:13.893 : en:Kith & Kin
00:46:42.174 : en:I Saw Him
00:52:17.467 : en:Which Witch
01:03:15.416 : en:The Tree of the Dead
01:13:20.270 : en:Knock Before Entering
01:19:03.321 : en:You Were Dreaming
01:23:33.466 : en:Murder Begats Murder
01:28:13.705 : en:Burning the Evidence
01:39:37.846 : en:The Church

[Профиль] [ЛС]
Показать сообщения:    

Текущее время: Сегодня 06:24

Часовой пояс: GMT



Вы не можете начинать темы
Вы не можете отвечать на сообщения
Вы не можете редактировать свои сообщения
Вы не можете удалять свои сообщения
Вы не можете голосовать в опросах
Вы не можете прикреплять файлы к сообщениям
Вы не можете скачивать файлы