Сом и Луна (Наталья Рысс) [2013, мультфильм, DVDScreener]

 
Автор Сообщение

TorrentFilm ®

Пол:

Стаж: 2 года

Сообщений: 7741



Награды: Нет

Торрент-статистика

Создавать темы 20-Окт-2015 00:07

[Цитировать]

Сом и Луна
Страна: РФ
Жанр: мультфильм
Продолжительность: 00:06:16
Год выпуска: 2013
Русские субтитры: нет
Режиссёр: Наталья Рысс
Описание: Поэтичная история любви сома и луны, которые встречаются по ночам, чтобы танцевать.
Доп. информация: Фильм - участник конкурсной программы фестиваля Суздаль-2014.
Качество: DVDScreener
Формат: AVI
Видео: DIVX, 720x416, 23,976 fps, 1421kbps
Аудио: MPEG Layer 3, 48kHz, 2ch, 192kbps
Субтитры: отсутствуют

Подробные технические данные

Полное имя :Сом и Луна.aviФормат : AVIФормат/Информация : Audio Video InterleaveРазмер файла : 72,9 МбайтПродолжительность : 6 м. 16 с.Общий поток : 1622 Кбит/секПрограмма кодирования : VirtualDubMod 1.5.10.3 | www.virtualdub-fr.org || (build 2550/release)Библиотека кодирования : VirtualDubMod build 2550/release
ВидеоИдентификатор : 0Формат : MPEG-4 VisualПрофиль формата : Advanced Simple@L5Параметр BVOP формата : 1Параметр QPel формата : НетПараметр GMC формата : Без точки переходаПараметр матрицы формата : Default (H.263)Идентификатор кодека : DIVXИдентификатор кодека/Информация : Project MayoИдентификатор кодека/Подсказка : DivX 4Продолжительность : 6 м. 16 с.Битрейт : 1421 Кбит/секШирина : 720 пикселейВысота : 416 пикселейСоотношение сторон : 1,731Частота кадров : 23,976 кадра/секЦветовое пространство : YUVСубдискретизация насыщенности : 4:2:0Битовая глубина : 8 битТип развёртки : ПрогрессивнаяМетод сжатия : С потерямиБит/(Пиксели*Кадры) : 0.198Размер потока : 63,8 Мбайт (88%)Библиотека кодирования : XviD 1.2.1 (UTC 2008-12-04)
АудиоИдентификатор : 1Формат : MPEG AudioВерсия формата : Version 1Профиль формата : Layer 3Идентификатор кодека : 55Идентификатор кодека/Подсказка : MP3Продолжительность : 6 м. 16 с.Вид битрейта : ПостоянныйБитрейт : 192 Кбит/секКаналы : 2 каналаЧастота : 48,0 КГцМетод сжатия : С потерямиРазмер потока : 8,62 Мбайт (12%)Выравнивание : Соединение по промежуткамПродолжительность промежутка : 42 мс. (1,00 видеокадр)Время предзагрузки промежутка : 504 мс.Библиотека кодирования : LAME3.99rНастройки программы : -m s -V 4 -q 0 -lowpass 18.6 -b 192

Скриншоты



[Профиль] [ЛС]
Кто просматривает тему:

Показать сообщения:    

Текущее время: Сегодня 22:07

Часовой пояс: GMT



Вы не можете начинать темы
Вы не можете отвечать на сообщения
Вы не можете редактировать свои сообщения
Вы не можете удалять свои сообщения
Вы не можете голосовать в опросах
Вы не можете прикреплять файлы к сообщениям
Вы не можете скачивать файлы