Сомнус / Somnus (2016) WEB-DLRip | L1

 
Автор Сообщение

BOSS ®

Пол:

Стаж: 2 года 1 месяц

Сообщений: 3735

Откуда: ODESSA



Награды: 20 (Подробнее)

Mega Seeder 5 (Количество: 1) Mega Seeder 2 (Количество: 1) Mega Releaser 1 (Количество: 1)
Торрент-статистика

Создавать темы 09-Окт-2016 13:48

[Цитировать]

Информация о фильме
Название: Сомнус
Оригинальное название: Somnus
Год выхода: 2016
Жанр: Фантастика, триллер, приключения
Режиссер: Крис Рединг
В ролях: Рохит Гокани, Виктория Джейн Оливер, Роберт Милер, Уэйн Сванн, Том Бонингтон, Клеменс Керинг, Дженнифер Мойлан-Тейлор, Мак МакДональд, Даррен Хайэм, Дон МакКоркиндэйл..
О фильме: Экипаж устаревшего космического корабля отправляется на их заключительную миссию Земля-Марс. Но сбой в навигационном оборудовании приводит к тому, что маршрут изменяется и они прибывают в Сомнус, отдалённую астероидную колонию. Вскоре, команда обнаруживает, что жители этого места имеют некую тёмную тайну, а также планы, относительно будущего человечества.

Страна: Великобритания
Студия: Brewery, The
Продолжительность: 01:22:55
Перевод: Любительский (одноголосый, закадровый) [BadBajo]
Субтитры: Нет
Семпл
Файл
Кодек: XviD
Качество: WEB-DLRip
Видео: 704x288 (2.44:1), 23.976 fps, XviD build 73 ~930 kbps avg, 0.19 bit/pixel
Звук: 48 kHz, MPEG Layer 3, 2 ch, ~320.00 kbps avg

MediaInfo

Общее
Полное имя : Somnus.2016.WEB-DLRip.ot.Portablius.avi
Формат : AVI
Формат/Информация : Audio Video Interleave
Размер файла : 748 Мбайт
Продолжительность : 1 ч. 22 м.
Общий поток : 1260 Кбит/сек
Программа кодирования : VirtualDubMod 1.5.10.3 | www.virtualdub-fr.org || (build 2550/release)
Библиотека кодирования : VirtualDubMod build 2550/release
Видео
Идентификатор : 0
Формат : MPEG-4 Visual
Профиль формата : Advanced Simple@L5
Параметр BVOP формата : 1
Параметр QPel формата : Нет
Параметр GMC формата : Без точки перехода
Параметр матрицы формата : Выборочная
Идентификатор кодека : XVID
Идентификатор кодека/Подсказка : XviD
Продолжительность : 1 ч. 22 м.
Битрейт : 931 Кбит/сек
Ширина : 704 пикселя
Высота : 288 пикселей
Соотношение сторон : 2,40:1
Частота кадров : 23,976 (23976/1000) кадра/сек
Цветовое пространство : YUV
Субдискретизация насыщенности : 4:2:0
Битовая глубина : 8 бит
Тип развёртки : Прогрессивная
Метод сжатия : С потерями
Бит/(Пиксели*Кадры) : 0.192
Размер потока : 552 Мбайт (74%)
Библиотека кодирования : XviD 73
Аудио
Идентификатор : 1
Формат : MPEG Audio
Версия формата : Version 1
Профиль формата : Layer 3
Идентификатор кодека : 55
Идентификатор кодека/Подсказка : MP3
Продолжительность : 1 ч. 22 м.
Вид битрейта : Постоянный
Битрейт : 320 Кбит/сек
Каналы : 2 канала
Частота : 48,0 КГц
Метод сжатия : С потерями
Размер потока : 190 Мбайт (25%)
Выравнивание : Соединение по промежуткам
Продолжительность промежутка : 42 мс. (1,00 видеокадр)
Время предзагрузки промежутка : 504 мс.
Библиотека кодирования : LAME3.99r
Настройки программы : -m s -V 4 -q 2 -lowpass 20.5

Скриншоты

[Профиль] [ЛС]
Показать сообщения:    

Текущее время: Сегодня 16:27

Часовой пояс: GMT



Вы не можете начинать темы
Вы не можете отвечать на сообщения
Вы не можете редактировать свои сообщения
Вы не можете удалять свои сообщения
Вы не можете голосовать в опросах
Вы не можете прикреплять файлы к сообщениям
Вы не можете скачивать файлы