Сомнус / Somnus (2016) WEB-DL 720p | L1

 
Автор Сообщение

достали все ®

Пол:

Стаж: 1 год 8 месяцев

Сообщений: 6565



Награды: 12 (Подробнее)

Mega Seeder 1 (Количество: 1) Mega Seeder 3 (Количество: 1) Mega Releaser 3 (Количество: 1)
Торрент-статистика

Создавать темы 08-Окт-2016 18:43

[Цитировать]

Информация о фильме
Название: Сомнус
Оригинальное название: Somnus
Год выхода: 2016
Жанр: Фантастика, триллер, приключения
Режиссер: Крис Рединг
В ролях: Рохит Гокани, Виктория Джейн Оливер, Роберт Милер, Уэйн Сванн, Том Бонингтон, Клеменс Керинг, Дженнифер Мойлан-Тейлор, Мак МакДональд, Даррен Хайэм, Дон МакКоркиндэйл..
О фильме:
Экипаж устаревшего космического корабля отправляется на их заключительную миссию Земля-Марс. Но сбой в навигационном оборудовании приводит к тому, что маршрут изменяется и они прибывают в Сомнус, отдалённую астероидную колонию. Вскоре, команда обнаруживает, что жители этого места имеют некую тёмную тайну, а также планы, относительно будущего человечества.

Страна: Великобритания
Студия: Brewery, The
Продолжительность: 01:22:55
Перевод: Любительский одноголосый [BadBajo]
Файл
Кодек: MPEG-4 AVC
Качество: WEB-DL (720p)
Видео: 4079 Кбит/с, 1280x528
Звук: Руский, английский (AC3, 6 ch, 384 Кбит/с)
Субтитры: Английские

MI

General
Unique ID : 183967937017387569054318769577807428686 (0x8A66EF953C1F76E794F6FACF2621BC4E)
Complete name : D:Somnus.2016.720p.WEB-DL.DD5.1.H264_rus_BadBajo.mkv
Format : Matroska
Format version : Version 4 / Version 2
File size : 2.81 GiB
Duration : 1 h 22 min
Overall bit rate mode : Variable
Overall bit rate : 4 849 kb/s
Encoded date : UTC 2016-10-08 11:17:38
Writing application : mkvmerge v9.2.0 ('Photograph') 64bit
Writing library : libebml v1.3.3 + libmatroska v1.4.4
Video
ID : 1
Format : AVC
Format/Info : Advanced Video Codec
Format profile : Main@L3.1
Format settings, CABAC : Yes
Format settings, ReFrames : 2 frames
Codec ID : V_MPEG4/ISO/AVC
Duration : 1 h 22 min
Bit rate mode : Variable
Bit rate : 4 079 kb/s
Maximum bit rate : 768 kb/s
Width : 1 280 pixels
Height : 528 pixels
Display aspect ratio : 2.40:1
Frame rate mode : Constant
Frame rate : 23.976 (23976/1000) FPS
Original frame rate : 23.976 (24000/1001) FPS
Color space : YUV
Chroma subsampling : 4:2:0
Bit depth : 8 bits
Scan type : Progressive
Bits/(Pixel*Frame) : 0.252
Stream size : 2.36 GiB (84%)
Language : English
Default : Yes
Forced : No
Audio #1
ID : 2
Format : AC-3
Format/Info : Audio Coding 3
Mode extension : CM (complete main)
Format settings, Endianness : Big
Codec ID : A_AC3
Duration : 1 h 22 min
Bit rate mode : Constant
Bit rate : 384 kb/s
Channel(s) : 6 channels
Channel positions : Front: L C R, Side: L R, LFE
Sampling rate : 48.0 kHz
Frame rate : 31.250 FPS (1536 spf)
Compression mode : Lossy
Stream size : 228 MiB (8%)
Language : English
Default : No
Forced : No
Audio #2
ID : 4
Format : AC-3
Format/Info : Audio Coding 3
Mode extension : CM (complete main)
Format settings, Endianness : Big
Codec ID : A_AC3
Duration : 1 h 22 min
Bit rate mode : Constant
Bit rate : 384 kb/s
Channel(s) : 6 channels
Channel positions : Front: L C R, Side: L R, LFE
Sampling rate : 48.0 kHz
Frame rate : 31.250 FPS (1536 spf)
Compression mode : Lossy
Stream size : 228 MiB (8%)
Language : Russian
Default : Yes
Forced : No
Text
ID : 3
Format : UTF-8
Codec ID : S_TEXT/UTF8
Codec ID/Info : UTF-8 Plain Text
Duration : 1 h 17 min
Bit rate : 37 b/s
Count of elements : 715
Stream size : 21.4 KiB (0%)
Language : English
Default : Yes
Forced : No
Релиз без рекламы.
Перевел и озвучил: BadBajo
Семпл

Скриншоты


[Профиль] [ЛС]
Кто просматривает тему:

Форум Тема Автор Размер
Фильмы 2016 года Сомнус / Somnus (2016) WEB-DLRip | L1 BOSS 748 MB
Показать сообщения:    

Текущее время: Сегодня 10:32

Часовой пояс: GMT



Вы не можете начинать темы
Вы не можете отвечать на сообщения
Вы не можете редактировать свои сообщения
Вы не можете удалять свои сообщения
Вы не можете голосовать в опросах
Вы не можете прикреплять файлы к сообщениям
Вы не можете скачивать файлы