Сомнительная невиновность / Un soupcon d\'innocence (Оливье Перей / Olivier Peray) [2010, Франция, криминальная драма, экранизация, DVB] Original (Fre) + Sub (rus)

 
Автор Сообщение

TorrentFilm ®

Пол:

Стаж: 2 года

Сообщений: 7741



Награды: Нет

Торрент-статистика

Создавать темы 19-Дек-2014 02:00

[Цитировать]

Сомнительная невиновность
Un soupçon d'innocence- Страна: Франция
Жанр: криминальная драма, экранизация
Год выпуска: 2010
Продолжительность: 01:27:14
Перевод: Субтитры (перевод М.Кузиной, Éclair Group)
Cубтитры: русские
Оригинальная аудиодорожка: французский
Режиссер: Оливье Перей / Olivier PérayВ ролях: Паскаль Арбийо / Pascale Arbillot (Marie), Мелюзин Майанс / Mélusine Mayance (Julie), Кароль Франк / Carole Franck (Florence), Луи-До де Ланкесен / Louis-Do de Lencquesaing (Dominique Roussel), Пако Бублар / Paco Boublard (Tony), Адриен Наисс / Adrien Naisse (Gildas)
Описание: По роману Жоржа-Жана Арно / Georges-Jean Arnaud "Четверг Жюли / Les jeudis de Julie" (1978).
Когда полиция прибыла на место убийства, бездыханное тело лежало у подножия лестницы большого дома… Полиция в этом преступлении обвиняет 11-летнюю племянницу жертвы…
Доп. информация: TV5MONDE DVB-S
Награда: приз за лучшую женскую роль (Pascale Arbillot) Festival de la fiction TV de La Rochelle 2010.

Качество видео: DVB
Формат видео: MKV
Видео: MPEG Video 2, 704x576@1024x576 (16:9), 25 fps, ~3669 kbps avg, 0.362 bit/pixel
Аудио: Французский (MPEG Audio 2, 2 ch, 48 kHz, ~192.00 kbps avg)
Формат субтитров: hardsub (неотключаемые)

MediaInfo

ОбщееУникальный идентификатор : 194903512337421932511409797943456804416 (0x92A10D12C5A542C9A33B8BE5BD89AE40)Полное имя : E:\My Torrents 2\[apreder]Un_soupcon_d'innocence(2010)DVB.mkvФормат : MatroskaВерсия формата : Version 2Размер файла : 2,40 ГбайтПродолжительность : 1 ч. 27 м.Режим общего битрейта : ПеременныйОбщий поток : 3939 Кбит/секДата кодирования : UTC 2014-11-15 14:23:08Программа кодирования : mkvmerge v7.3.0 ('Nouages') 64bit built on Oct 22 2014 18:53:34Библиотека кодирования : libebml v1.3.0 + libmatroska v1.4.1
ВидеоИдентификатор : 1Формат : MPEG VideoВерсия формата : Version 2Профиль формата : Main@MainПараметр BVOP формата : НетПараметр матрицы формата : ВыборочнаяFormat_Settings_PictureStructure : FrameИдентификатор кодека : V_MPEG2Идентификатор кодека/Информация : MPEG 1 or 2 VideoПродолжительность : 1 ч. 27 м.Вид битрейта : ПеременныйБитрейт : 3669 Кбит/секМаксимальный битрейт : 7505 Кбит/секШирина : 704 пикселяВысота : 576 пикселейСоотношение сторон : 16:9Режим частоты кадров : ПостоянныйЧастота кадров : 25,000 кадров/секСтандарт вещания : PALЦветовое пространство : YUVСубдискретизация насыщенности : 4:2:0Битовая глубина : 8 битТип развёртки : ЧересстрочнаяПорядок развёртки : Верхнее поле первоеМетод сжатия : С потерямиБит/(Пиксели*Кадры) : 0.362Временной код первого кадра : 00:00:00:00Оригинал временного кода : Group of pictures headerРазмер потока : 2,24 Гбайт (93%)Default : ДаForced : Нет
АудиоИдентификатор : 2Формат : MPEG AudioВерсия формата : Version 1Профиль формата : Layer 2Идентификатор кодека : A_MPEG/L2Идентификатор кодека/Подсказка : MP2Продолжительность : 1 ч. 27 м.Вид битрейта : ПостоянныйБитрейт : 192 Кбит/секКаналы : 2 каналаЧастота : 48,0 КГцМетод сжатия : С потерямиРазмер потока : 120 Мбайт (5%)Язык : FrenchDefault : ДаForced : Нет

Скриншот c названием фильма

Скриншоты


Резервные скриншоты


-[1'911]
[Профиль] [ЛС]

Создавать темы 06-Авг-2015 22:54 (спустя 7 месяцев 18 дней)

Топик был перенесен из форума Фильмы до 2014 года в форум Фильмы до 2012 года
sergej644
 

Создавать темы 12-Июн-2016 07:54 (спустя 1 год 5 месяцев)

Топик был перенесен из форума Фильмы 2011 года в форум Фильмы 2010 года
Russian Mafia
 
Показать сообщения:    

Текущее время: Сегодня 12:34

Часовой пояс: GMT



Вы не можете начинать темы
Вы не можете отвечать на сообщения
Вы не можете редактировать свои сообщения
Вы не можете удалять свои сообщения
Вы не можете голосовать в опросах
Вы не можете прикреплять файлы к сообщениям
Вы не можете скачивать файлы