Соло на саксофоне (Александр Кириенко) [2012, Россия, драма, DVD5] R5 Original Rus

 
Автор Сообщение

TorrentFilm ®

Пол:

Стаж: 2 года

Сообщений: 7741



Награды: Нет

Торрент-статистика

Создавать темы 02-Янв-2016 00:03

[Цитировать]

-Соло на саксофоне -Страна: Россия
Студия: Всемирные Русские Студии
Жанр: драма
Год выпуска: 2012
Российская премьера: 25 августа 2012
Дата выхода DVD: 14 Марта 2013, «Русское счастье»
Продолжительность: 01:43:39
Перевод: Оригинал [Лицензия]
Cубтитры: нет
Оригинальная аудиодорожка: русский-Режиссер: Александр Кириенко-В ролях: Виталий Хаев, Алексей Серебряков, Константин Крюков, Евгения Хиривская, Елена Лядова-Описание: Владислав Лавров — владелец могущественной строительной империи. Ему во всем сопутствует удача — бизнес процветает, красавица жена делает головокружительную карьеру на эстраде, а любимая дочь — на телевидении. Но однажды в доме Лаврова появляется его давний друг — Саша Фролов. Он беден, смертельно болен, и все называют его Саша-Саксофон за виртуозную игру на инструменте. Этот человек за один день полностью разрушает незыблемую и отлаженную жизнь Лаврова. «Соло на саксофоне» будет открывать нам тайны этой семьи и этой дружбы одну за другой, а также главный секрет, который связывает бывших друзей, а ныне уголовника и строительного магната.-Бонусы: нет- -Релиз группы: -Качество: DVD5 R5
Формат: DVD-Video
Видео кодек: MPEG2
Аудио кодек: AC3
Видео: PAL 16:9 (720x576(0.479)) MPEG Video, 25,000 кадр/сек, 4967 Кбит/сек
Аудио #1: Russian (Dolby AC3, 2 ch) 192 Кбит/сек, 48,0 КГц
Аудио #2: Russian (Dolby AC3, 6 ch) 448 Кбит/сек, 48,0 КГц--

DVDInfo

Title: Solo.na.saksafone.2012.DVD5
Size: 4.18 Gb ( 4 386 872,00 KBytes ) - DVD-5
Enabled regions: 1, 2, 3, 4, 5, 6, 7, 8
VTS_01 :
Play Length: 01:43:39
Video: PAL 16:9 (720x576) VBR, Auto Letterboxed
Audio:
English (Dolby AC3, 2 ch)
English (Dolby AC3, 6 ch)
* Menus Information *
VIDEO_TS Menu
Video:
PAL 16:9 (720x576) VBR
Auto Letterboxed
English Language Unit :
Title Menu
VTS_01 Menu
Video:
PAL 16:9 (720x576) VBR
Auto Letterboxed
Audio:
Not specified (Dolby AC3, 2 ch)
English Language Unit :
Root Menu

MediaInfo

Общее
Полное имя : J:\Новинки 2013\Solo.na.saksafone.2012.DVD5\VIDEO_TS\VTS_01_2.VOB
Формат : MPEG-PS
Размер файла : 1024 Мбайт
Продолжительность : 25 м.
Режим общего битрейта : Переменный
Общий поток : 5721 Кбит/сек
Видео
Идентификатор : 224 (0xE0)
Формат : MPEG Video
Версия формата : Version 2
Профиль формата : Main@Main
Параметр BVOP формата : Да
Параметр матрицы формата : Выборочная
Параметр GOP формата : Variable
Продолжительность : 25 м.
Вид битрейта : Переменный
Битрейт : 4967 Кбит/сек
Максимальный битрейт : 8100 Кбит/сек
Ширина : 720 пикселей
Высота : 576 пикселей
Соотношение сторон : 16:9
Частота кадров : 25,000 кадров/сек
Стандарт вещания : PAL
Цветовое пространство : YUV
Субдискретизация насыщенности : 4:2:0
Битовая глубина : 8 бит
Тип развёртки : Прогрессивная
Метод сжатия : С потерями
Бит/(Пиксели*Кадры) : 0.479
Размер потока : 889 Мбайт (87%)
Аудио #1
Идентификатор : 189 (0xBD)-128 (0x80)
Формат : AC-3
Формат/Информация : Audio Coding 3
Расширение режима : CM (complete main)
Параметр Endianness формата : Big
Режим смешивания : DVD-Video
Продолжительность : 25 м.
Вид битрейта : Постоянный
Битрейт : 192 Кбит/сек
Каналы : 2 канала
Расположение каналов : Front: L R
Частота : 48,0 КГц
Битовая глубина : 16 бит
Метод сжатия : С потерями
Задержка видео : -696 мс.
Размер потока : 34,4 Мбайт (3%)
Аудио #2
Идентификатор : 189 (0xBD)-129 (0x81)
Формат : AC-3
Формат/Информация : Audio Coding 3
Расширение режима : CM (complete main)
Параметр Endianness формата : Big
Режим смешивания : DVD-Video
Продолжительность : 25 м.
Вид битрейта : Постоянный
Битрейт : 448 Кбит/сек
Каналы : 6 каналов
Расположение каналов : Front: L C R, Side: L R, LFE
Частота : 48,0 КГц
Битовая глубина : 16 бит
Метод сжатия : С потерями
Задержка видео : -760 мс.
Размер потока : 80,2 Мбайт (8%)

Скриншоты меню

Скриншоты фильма


-
-Раздача от группы:
[Профиль] [ЛС]
Кто просматривает тему:

Показать сообщения:    

Текущее время: Сегодня 08:14

Часовой пояс: GMT



Вы не можете начинать темы
Вы не можете отвечать на сообщения
Вы не можете редактировать свои сообщения
Вы не можете удалять свои сообщения
Вы не можете голосовать в опросах
Вы не можете прикреплять файлы к сообщениям
Вы не можете скачивать файлы