Соломон Кейн / Solomon Kane (Майкл Дж. Бассетт / Michael J. Bassett) [2009, Франция, Великобритания, Чехия, фэнтези, боевик, приключения, DVB] [Fullscreen] Dub

 
Автор Сообщение

TorrentFilm ®

Пол:

Стаж: 1 год 11 месяцев

Сообщений: 7741



Награды: Нет

Торрент-статистика

Создавать темы 13-Мар-2016 00:08

[Цитировать]

Соломон Кейн / Solomon Kane / Fullscreen Страна: Франция, Великобритания, Чехия
Жанр: фэнтези, боевик, приключения
Год выпуска: 2009
Продолжительность: 01:31:17 (без финальных титров)
Перевод: Профессиональный (дублированный)
Cубтитры: нет
Оригинальная аудиодорожка: нет
Режиссер: Майкл Дж. Бассетт / Michael J. Bassett
В ролях: Джеймс Пьюрфой (James Purefoy), Марк О’Нил (Mark O'Neal), Роберт Орр (Robert Orr), Ричард Райан (Richard Ryan), Франтишек Дик (Frantisek Deak), Йен Уайт (Ian Whyte), Макс фон Сюдов (Max von Sydow), Рейчел Херд-Вуд (Rachel Hurd-Wood)
Описание: По мотивам рассказов Роберта Ирвина Говарда. Соломон Кейн - английский солдат XVI века, который осознал, что его бесчеловечные и жестокие поступки навечно прокляли его душу. Вознамерившись искупить свои грехи, Кейн клянется жить в мире и добродетели, но когда на землю ступают темные силы, ему не остается ничего, как дать бой.
Доп. информация: Собственная запись с канала ТВ3. Наполнение кадра отличается от BD/DVD
http://screenshotcomparison.com/comparison/165137
Сэмпл: http://multi-up.com/1092713
Качество видео: DVB
Формат видео: TS
Видео: AVC, 720x576, 4:3, 25 fps, 2734 Kbps
Аудио: Русский (mpa, 2 ch), 48000 Hz, 192 Kbps

MediaInfo

Общее
Идентификатор : 1 (0x1)
Полное имя : F:\Downloads\Solomon Kane Fulscreen.ts
Формат : MPEG-TS
Размер файла : 1,96 Гбайт
Продолжительность : 1 ч. 31 м.
Режим общего битрейта : Переменный
Общий поток : 3080 Кбит/сек
Видео
Идентификатор : 2051 (0x803)
Идентификатор меню : 2050 (0x802)
Формат : AVC
Формат/Информация : Advanced Video Codec
Профиль формата : Main@L3
Параметр CABAC формата : Да
Параметр ReFrames формата : 3 кадра
Параметр GOP формата : M=4, N=28
Идентификатор кодека : 27
Продолжительность : 1 ч. 31 м.
Битрейт : 2734 Кбит/сек
Ширина : 720 пикселей
Высота : 576 пикселей
Соотношение сторон : 4:3
Частота кадров : 25,000 кадров/сек
Стандарт вещания : Component
Цветовое пространство : YUV
Субдискретизация насыщенности : 4:2:0
Битовая глубина : 8 бит
Тип развёртки : Чересстрочная
Метод сохранения типа развёртки : Раздельные поля
Порядок развёртки : Верхнее поле первое
Бит/(Пиксели*Кадры) : 0.264
Размер потока : 1,74 Гбайт (89%)
Цветовой диапазон : Limited
Основные цвета : BT.601 PAL
Характеристики трансфера : BT.470 System B, BT.470 System G
Коэффициенты матрицы : BT.601
Аудио
Идентификатор : 2052 (0x804)
Идентификатор меню : 2050 (0x802)
Формат : MPEG Audio
Версия формата : Version 1
Профиль формата : Layer 2
Идентификатор кодека : 3
Продолжительность : 1 ч. 31 м.
Вид битрейта : Постоянный
Битрейт : 192 Кбит/сек
Каналы : 2 канала
Частота : 48,0 КГц
Метод сжатия : С потерями
Задержка видео : -120 мс.
Размер потока : 125 Мбайт (6%)
Язык : English

Скриншот c названием фильма

Скриншоты

[Профиль] [ЛС]

Создавать темы 12-Июн-2016 07:56 (спустя 2 месяца 30 дней)

Топик был перенесен из форума Фильмы 2011 года в форум Фильмы 2009 года
Russian Mafia
 
Кто просматривает тему:

Форум Тема Автор Размер
Путешествия и приключения Копи царя Соломона (Генри Райдер Хаггард) [2014, Историко-приключенческий роман, аудиокнига, MP3, 96 kbps, Михамил Горевой] Magnat 427 MB
Компьютерная литература (Программирование) М. Руссинович, Д. Соломон - Внутреннее устройство Microsoft Windows, 6-е издание (Часть 1) [2013, PDF, RUS] TorrentFilm 11 MB
Отечественные мультфильмы Печать царя Соломона (Владлен Барбэ) [2012, мультфильм, приключения, WEB-DLRip] reversefile 1.37 GB
Фильмы (HD Rips | 720p, 1080p) Сказка. Есть (Елизавета Соломина, Константин Статский, Александр Баршак) [2012, Россия, приключения, сказка, BDRip 1080p] Original Rus TorrentFilm 6.38 GB
Фильмы (HD Rips | 720p, 1080p) Сказка. Есть (Елизавета Соломина, Константин Статский, Александр Баршак) [2012, Россия, приключения, сказка, BDRip 720p] Original Rus TorrentFilm 4.86 GB
Фильмы (HD Rips | 720p, 1080p) Сказка. Есть (Елизавета Соломина, Константин Статский, Александр Баршак) [2012, Россия, приключения, сказка, Blu-ray disc 1080p] Original Rus TorrentFilm 17.69 GB
Фильмы (DVD 5/9) Сказка. Есть (Елизавета Соломина, Константин Статский, Александр Баршак) [2012, Россия, фэнтези, семейный, DVD5 (Сжатый)] исх. R5, Original Rus TorrentFilm 4.28 GB
Кино СССР Соломенная шляпка (Леонид Квинихидзе)[1974, мюзикл, комедия, DVDRip] sergej644 1.45 GB
Показать сообщения:    

Текущее время: Сегодня 09:49

Часовой пояс: GMT



Вы не можете начинать темы
Вы не можете отвечать на сообщения
Вы не можете редактировать свои сообщения
Вы не можете удалять свои сообщения
Вы не можете голосовать в опросах
Вы не можете прикреплять файлы к сообщениям
Вы не можете скачивать файлы