Соломенная шляпка (Леонид Квинихидзе)[1974, мюзикл, комедия, DVDRip]

 
Автор Сообщение

sergej644 ®

Пол:

Стаж: 4 года 11 месяцев

Сообщений: 6046

Откуда: Soviet Union



Награды: Нет

Торрент-статистика

Создавать темы 11-Июл-2015 21:01

[Цитировать]

--Соломенная шляпка (1974) DVDRip
Страна: СССР
Производство: Ленфильм
Жанр: мюзикл, комедия
Год выпуска: 1974
Продолжительность: 02:07:12 ( 01:03:30 + 01:03:42)
Перевод: не требуется
Оригинальная аудиодорожка: русский
Cубтитры: нет
Режиссер: Леонид Квинихидзе
В ролях:
Андрей Миронов (Леонидос Фадинар, рантье), Владислав Стржельчик (Антуан Петипьер Нонанкур, отец невесты), Зиновий Гердт (месье Тардюво), Ефим Копелян (месье Бопертюи), Людмила Гурченко (мадам Клара Бокардон), Екатерина Васильева (Анаис, мадам Бопертюи), Алиса Фрейндлих (Баронесса де Шампеньи), Михаил Козаков (Виконт), Игорь Кваша (Эмиль Тавернье), Александр Бениаминов (дядя жениха), Владимир Татосов (Феликс), Ирина Магуто (Вирджини)...
Описание:
Герой фильма вынужден жениться, так как у него полно долгов, а 24 франка в день составляют 8000 с лишним франков в год одной только ренты, и к тому же на браке настаивает отец невесты, но в дело вмешивается лошадь, предпочитающая итальянскую соломку…- ] -Исходник: DVD9 R5
Тип релиза: DVDRip
Контейнер: AVI
Видео: 720x528 (4:3), 25 fps, XviD ~ 1499 kbps avg, 0.158 bit/pixel
Аудио: 48 kHz, MP3 2.0, 128 kbps

MediaInfo

Общее
Полное имя                               : Solomennaya.shlyapka.1974.DVDRip-1.46_[Youtracker]_by_AVP Studio.avi
Формат                                   : AVI
Формат/Информация                        : Audio Video Interleave
Размер файла                             : 743 Мбайт
Продолжительность                        : 1 ч. 3 м.
Общий поток                              : 1636 Кбит/сек
Программа кодирования                    : VirtualDubModRus 1.5.10.2 (build 2542/release)
Библиотека кодирования                   : VirtualDubMod build 2542/release
Видео
Идентификатор                            : 0
Формат                                   : MPEG-4 Visual
Профиль формата                          : Advanced Simple@L5
Параметр BVOP формата                    : 1
Параметр QPel формата                    : Нет
Параметр GMC формата                     : Без точки перехода
Параметр матрицы формата                 : Выборочная
Идентификатор кодека                     : XVID
Идентификатор кодека/Подсказка           : XviD
Продолжительность                        : 1 ч. 3 м.
Битрейт                                  : 1499 Кбит/сек
Ширина                                   : 720 пикселей
Высота                                   : 528 пикселей
Соотношение сторон                       : 4:3
Частота кадров                           : 25,000 кадров/сек
Цветовое пространство                    : YUV
Субдискретизация насыщенности            : 4:2:0
Битовая глубина                          : 8 бит
Тип развёртки                            : Прогрессивная
Метод сжатия                             : С потерями
Бит/(Пиксели*Кадры)                      : 0.158
Размер потока                            : 681 Мбайт (92%)
Библиотека кодирования                   : XviD 65
Аудио
Идентификатор                            : 1
Формат                                   : MPEG Audio
Версия формата                           : Version 1
Профиль формата                          : Layer 3
Идентификатор кодека                     : 55
Идентификатор кодека/Подсказка           : MP3
Продолжительность                        : 1 ч. 3 м.
Вид битрейта                             : Постоянный
Битрейт                                  : 128 Кбит/сек
Каналы                                   : 2 канала
Частота                                  : 48,0 КГц
Метод сжатия                             : С потерями
Размер потока                            : 58,1 Мбайт (8%)
Выравнивание                             : Соединение по промежуткам
Продолжительность промежутка             : 40  мс. (1,00 видеокадр)
Время предзагрузки промежутка            : 504  мс.
Библиотека кодирования                   : L3.99r
Настройки программы                      : -m s -V 4 -q 2 -lowpass 17 -b 128

Скриншоты



Последний раз редактировалось: sergej644 (2015-08-07 19:11), всего редактировалось 1 раз
[Профиль] [ЛС]
Кто просматривает тему:

Форум Тема Автор Размер
Путешествия и приключения Копи царя Соломона (Генри Райдер Хаггард) [2014, Историко-приключенческий роман, аудиокнига, MP3, 96 kbps, Михамил Горевой] Magnat 427 MB
Компьютерная литература (Программирование) М. Руссинович, Д. Соломон - Внутреннее устройство Microsoft Windows, 6-е издание (Часть 1) [2013, PDF, RUS] TorrentFilm 11 MB
Отечественные мультфильмы Печать царя Соломона (Владлен Барбэ) [2012, мультфильм, приключения, WEB-DLRip] reversefile 1.37 GB
Фильмы (HD Rips | 720p, 1080p) Сказка. Есть (Елизавета Соломина, Константин Статский, Александр Баршак) [2012, Россия, приключения, сказка, BDRip 1080p] Original Rus TorrentFilm 6.38 GB
Фильмы (HD Rips | 720p, 1080p) Сказка. Есть (Елизавета Соломина, Константин Статский, Александр Баршак) [2012, Россия, приключения, сказка, BDRip 720p] Original Rus TorrentFilm 4.86 GB
Фильмы (HD Rips | 720p, 1080p) Сказка. Есть (Елизавета Соломина, Константин Статский, Александр Баршак) [2012, Россия, приключения, сказка, Blu-ray disc 1080p] Original Rus TorrentFilm 17.69 GB
Фильмы (DVD 5/9) Сказка. Есть (Елизавета Соломина, Константин Статский, Александр Баршак) [2012, Россия, фэнтези, семейный, DVD5 (Сжатый)] исх. R5, Original Rus TorrentFilm 4.28 GB
Разная литература Соломон (Исецкий) Георгий Александрович - Среди красных вождей (2016) FB2 достали все 2 MB
Показать сообщения:    

Текущее время: Сегодня 09:10

Часовой пояс: GMT



Вы не можете начинать темы
Вы не можете отвечать на сообщения
Вы не можете редактировать свои сообщения
Вы не можете удалять свои сообщения
Вы не можете голосовать в опросах
Вы не можете прикреплять файлы к сообщениям
Вы не можете скачивать файлы