Соловей-Разбойник (Егор Баранов) [2012, Россия, боевик, комедия, криминал, DVD5 (Сжатый)] исх. R5, + Original Rus

 
Автор Сообщение

TorrentFilm ®

Пол:

Стаж: 2 года

Сообщений: 7741



Награды: Нет

Торрент-статистика

Создавать темы 01-Янв-2016 00:10

[Цитировать]

Соловей-Разбойник
Страна: Россия
Жанр: боевик, комедия, криминал
Год выпуска: 2012
Продолжительность: 01:28:02
Перевод: Оригинал [Лицензия]
Cубтитры: нет
Оригинальная аудиодорожка: русский
Режиссер: Егор Баранов
В ролях: Иван Охлобыстин, Евгений Стычкин, Оксана Фандера, Игорь Жижикин, Сергей Бадюк, Александр Стриженов, Павел Прилучный, Мария Голубкина, Александр Сухинин, Михаил Горевой
Описание: История о дерзком романтике Соловьёве Севастьяне Григорьевиче, cтупившем по зову крови на лихую стезю русского разбоя. И пока спецслужбы во главе с секретным агентом Н7 пытаются ликвидировать банду Соловья-Разбойника, он, со свойственным ему драйвом и озорством, восстанавливает в родном краю справедливость. Но рано или поздно любой «сказке» приходит конец….
Бонусы: нет
Меню: русское, статичное, озвученное
Тип релиза: DVD5 (Сжатый)
Контейнер: DVD-Video
Видео: PAL 16:9 (720x576) 6 450 Kbps
Аудио: Russian (Dolby AC3, 6 ch) 384 Kbps
http://www.youtube.com/watch?v=NtvZwYgnGrc

Доп. информация

Обработано в DVDRemake Pro.+Photoshop+Muxman
Видео сжималось 25%.
Сжималось связкой DVD Rebuilder + CCE/Procoder в 5 проходов.
Удалёно: Russian (Dolby AC3, 2 ch), заставки и предупреждение.
Лишние кнопки затерты и закрыты.

Лог кодирования

-----------------
[19:53:54] Phase I, PREPARATION started.
- DVD-RB v1.28.2
- AVISYNTH 2.5.8.0
- CCE 1.0.1.9 encoder selected.
- Source: SOLOVEY.RAZBOYNIK.2012.DVD5
- VTS_01: 2 972 489 sectors.
-- Scanning and writing .D2V & .AVS files
-- Processed 132 022 frames.
-- Building .AVS and .ECL files
- Reduction Level for DVD-5: 75,6%
- Overall Bitrate : 6 512Kbs
- Space for Video : 4 197 872KB
- HIGH/LOW/TYPICAL Bitrates: 6 514/1 229/6 512 Kbs
[19:55:34] Phase I, PREPARATION completed in 2 minutes.
- WARNING: Viewer/Editor settings are over target.
[20:08:32] Phase II ENCODING started
- Extracting STILLS for VTS_01 segment 0
- Creating M2V for VTS_01 segment 1
- Creating M2V for VTS_01 segment 2
- Creating M2V for VTS_01 segment 3
- Creating M2V for VTS_01 segment 4
- Creating M2V for VTS_01 segment 5
- Creating M2V for VTS_01 segment 6
- Creating M2V for VTS_01 segment 7
- Creating M2V for VTS_01 segment 8
- Creating M2V for VTS_01 segment 9
- Creating M2V for VTS_01 segment 10
- Creating M2V for VTS_01 segment 11
- Creating M2V for VTS_01 segment 12
- Creating M2V for VTS_01 segment 13
- Creating M2V for VTS_01 segment 14
- Extracting STILLS for VTS_01 segment 15
[21:01:00] Phase II ENCODING completed in 53 minutes.
[21:25:22] Phase III, REBUILD started.
- Copying IFO, BUP, and unaltered files...
- Processing VTS_01
- Reading/processing TMAP table...
- Rebuilding seg 0 VOBID 1 CELLID 1
- Updating NAVPACKS for VOBID_01
- Rebuilding seg 1 VOBID 2 CELLID 1
- Rebuilding seg 2 VOBID 2 CELLID 2
- Rebuilding seg 3 VOBID 2 CELLID 3
- Rebuilding seg 4 VOBID 2 CELLID 4
- Rebuilding seg 5 VOBID 2 CELLID 5
- Rebuilding seg 6 VOBID 2 CELLID 6
- Rebuilding seg 7 VOBID 2 CELLID 7
- Rebuilding seg 8 VOBID 2 CELLID 8
- Rebuilding seg 9 VOBID 2 CELLID 9
- Rebuilding seg 10 VOBID 2 CELLID 10
- Rebuilding seg 11 VOBID 2 CELLID 11
- Rebuilding seg 12 VOBID 2 CELLID 12
- Rebuilding seg 13 VOBID 2 CELLID 13
- Updating NAVPACKS for VOBID_02
- Rebuilding seg 14 VOBID 3 CELLID 1
- Updating NAVPACKS for VOBID_03
- Rebuilding seg 15 VOBID 4 CELLID 1
- Updating NAVPACKS for VOBID_04
- Updated VTS_C_ADT.
- Updated VTS_VOBU_ADMAP.
- Updated IFO: VTS_01_0.IFO
- Updating TMAP table...
- Correcting VTS Sectors...
[21:35:38] Phase III, REBUILD completed in 10 minutes.
Done.

MediaInfo

General
Complete name : D:\_Video\Solovey.Razboynik.2012.DVD5\VIDEO_TS\VTS_01_1.VOB
Format : MPEG-PS
File size : 1 024 MiB
Duration : 20mn 31s
Overall bit rate : 6 973 Kbps
Video
ID : 224 (0xE0)
Format : MPEG Video
Format version : Version 2
Format profile : Main@Main
Format settings, BVOP : Yes
Format settings, Matrix : Custom
Duration : 20mn 31s
Bit rate mode : Variable
Bit rate : 6 450 Kbps
Width : 720 pixels
Height : 576 pixels
Display aspect ratio : 2.35:1
Frame rate : 25.000 fps
Standard : PAL
Color space : YUV
Chroma subsampling : 4:2:0
Bit depth : 8 bits
Compression mode : Lossy
Bits/(Pixel*Frame) : 0.622
Stream size : 947 MiB (93%)
Audio
ID : 189 (0xBD)-128 (0x80)
Format : AC-3
Format/Info : Audio Coding 3
Mode extension : CM (complete main)
Muxing mode : DVD-Video
Duration : 20mn 31s
Bit rate mode : Constant
Bit rate : 384 Kbps
Channel(s) : 6 channels
Channel positions : Front: L C R, Side: L R, LFE
Sampling rate : 48.0 KHz
Bit depth : 16 bits
Compression mode : Lossy
Stream size : 56.4 MiB (6%)
Menu

DVDInfo

Title: Bob
Size: 4.36 Gb ( 4 575 226 KBytes ) - DVD-5
Enabled regions: 1, 2, 3, 4, 5, 6, 7, 8
VTS_01 :
Play Length: 01:28:00
Video: PAL 16:9 (720x576) VBR, Auto Pan&Scan
Audio:
Russian (Dolby AC3, 6 ch)
Russian (Dolby AC3, 2 ch)
VTS_02 :
Play Length:
Video: PAL 16:9 (720x576) VBR, Auto Pan&Scan
Audio:
Russian (Dolby AC3, 2 ch)
VTS_03 :
Play Length:
Video: PAL 16:9 (720x576) VBR, Auto Pan&Scan
Audio:
Russian (Dolby AC3, 2 ch)
VTS_04 :
Play Length: 00:00:01
Video: PAL 16:9 (720x576) VBR, Auto Pan&Scan
Audio:
Russian (Dolby AC3, 2 ch)
VTS_05 :
Play Length: 00:00:04
Video: PAL 16:9 (720x576) VBR, Auto Pan&Scan
Audio:
Russian (Dolby AC3, 2 ch)

Cкриншот финального проекта

Скриншоты меню

Скриншоты



Раздача от группы:
[Профиль] [ЛС]
Кто просматривает тему:

Форум Тема Автор Размер
Отечественные мультфильмы Алеша Попович и Тугарин Змей / Добрыня Никитич и Змей Горыныч / Илья Муромец и Соловей Разбойник / Три богатыря и Шамаханская царица / Иван Царевич и Серый Волк (К. Бронзит, И. Максимов, В. Торопчин,... reversefile 7.31 GB
Отечественные мультфильмы Алеша Попович и Тугарин Змей / Добрыня Никитич и Змей Горыныч / Илья Муромец и Соловей Разбойник / Три богатыря и Шамаханская царица / Иван Царевич и Серый Волк / Три богатыря на дальних берегах... reversefile 4.37 GB
Документальные HD Антарктическое лето (Владимир Соловьев) [2012, Документальный, HDTV 1080i] TorrentFilm 2.55 GB
Документальные HD Антарктическое Лето (Владимир Соловьев) [2012, Документальный, HDTV 720p] TorrentFilm 1.07 GB
Телепередачи Вечер с Владимиром Соловьевым [09/07/2015, SATRip] Монах 1.76 GB
Общественно-политические передачи Вечер с Владимиром Соловьевым [17/12/2015, Информационно-аналитическая программа, SATRip] Монах 1.49 GB
Телепередачи Воскресный вечер с Владимиром Соловьевым (2014.08.10) SATRip sergej644 1.7 GB
Общественно-политические передачи Воскресный вечер с Владимиром Соловьевым [06/09/2015, Информационно-аналитическая программа Монах 2.06 GB
Показать сообщения:    

Текущее время: Сегодня 01:27

Часовой пояс: GMT



Вы не можете начинать темы
Вы не можете отвечать на сообщения
Вы не можете редактировать свои сообщения
Вы не можете удалять свои сообщения
Вы не можете голосовать в опросах
Вы не можете прикреплять файлы к сообщениям
Вы не можете скачивать файлы