Солнышко и снежные человечки (Владимир Гончаров) [1985 г., Рисованная анимация, DVB]

 
Автор Сообщение

painkiller ®

Стаж: 2 года 3 месяца

Сообщений: 582



Награды: Нет

Торрент-статистика

Создавать темы 27-Авг-2014 19:32

[Цитировать]

Солнышко и снежные человечки
Жанр: Рисованная анимация
Год выпуска: 1985
Продолжительность: 00:09:57
Режиссёр: Владимир Гончаров
Описание: Мультфильм о том, как жили в зимнем лесу четыре снежных человечка с морковками вместо носа. Иногда они смотрели, как в доме спят дети. Своим папой считали Мороза. Жизнь им омрачала ворона, говорившая, что придет солнце и все они растают. Снеговики пошли к солнышку просить, чтобы оно не приходило...
Доп. информация:

Релиз спутникового канала: "Карусель"
Качество видео: DVB
Формат видео: MPEG-PS
Видео: MPEG2 Video, 720x576, 25 fps, 3900 kbps
Аудио: MPEG Audio, 2 сh, 48 kHz, 192 kbps

MediaInfo

General
Complete name : O:\SAT\___MULT\Солнышко и снежные человечки. (1985)_DVB by SLuMeP.mpg
Format : MPEG-PS
File size : 295 MiB
Duration : 9mn 57s
Overall bit rate : 4 140 Kbps
Video
ID : 224 (0xE0)
Format : MPEG Video
Format version : Version 2
Format profile : Main@Main
Format settings, BVOP : Yes
Format settings, Matrix : Default
Format settings, GOP : M=3, N=12
Duration : 9mn 57s
Bit rate mode : Variable
Bit rate : 3 866 Kbps
Nominal bit rate : 5 000 Kbps
Width : 720 pixels
Height : 576 pixels
Display aspect ratio : 4:3
Frame rate : 25.000 fps
Standard : PAL
Color space : YUV
Chroma subsampling : 4:2:0
Bit depth : 8 bits
Scan type : Interlaced
Scan order : Top Field First
Bits/(Pixel*Frame) : 0.373
Stream size : 275 MiB (93%)
Audio
ID : 192 (0xC0)
Format : MPEG Audio
Format version : Version 1
Format profile : Layer 2
Duration : 9mn 57s
Bit rate mode : Constant
Bit rate : 192 Kbps
Channel(s) : 2 channels
Sampling rate : 48.0 KHz
Stream size : 13.7 MiB (5%)

Скриншоты

[Профиль] [ЛС]
Показать сообщения:    

Текущее время: Сегодня 12:47

Часовой пояс: GMT



Вы не можете начинать темы
Вы не можете отвечать на сообщения
Вы не можете редактировать свои сообщения
Вы не можете удалять свои сообщения
Вы не можете голосовать в опросах
Вы не можете прикреплять файлы к сообщениям
Вы не можете скачивать файлы