Солнечный удар (Никита Михалков) [2014, Росссия, драма, WEB-DL 720p] + Original Rus

 
Автор Сообщение

TorrentFilm ®

Пол:

Стаж: 2 года

Сообщений: 7741



Награды: Нет

Торрент-статистика

Создавать темы 07-Дек-2015 00:12

[Цитировать]

Солнечный удар
Страна: Росссия
Студия: Тритэ
Жанр: Драма
Год выпуска: 2014
Продолжительность: 03:00:12
Перевод: Не требуется
Cубтитры: нет
Оригинальная аудиодорожка: русский
Режиссер: Никита Михалков
В ролях: Мартиньш Калита, Виктория Соловьева, Сергей Серов, Алёна Спивак-Бычкова, Наталья Суркова, Денис Васильев, Ксения Попович, Олег Граф, Вадим Головко, Андрей Попович
Описание: «Солнечный удар» – попытка осмысления режиссером не только философского подтекста бунинской прозы, но и закономерностей развития русской истории. Тем не менее, концептуальным стержнем картины становится взаимосвязь личностного и общенационального греха, погибельный отзвук ошибок прошлого в настоящем, роль мечтательности, лжи и самообольщения в процессе падения человека и страны в целом.
Сэмпл
Тип релиза: WEB-DL 720p
Контейнер: MKV
Видео: AVC, 1280х536 (2,40:1), 24,000 кадров/сек, 3889 кбит/сек
Аудио: AC-3, 48,0 КГц, 6 каналов, 384 кбит/сек

MediaInfo

Видео
Идентификатор : 1
Формат : AVC
Формат/Информация : Advanced Video Codec
Профиль формата : Main@L3.1
Параметр CABAC формата : Нет
Параметр ReFrames формата : 2 кадра
Идентификатор кодека : V_MPEG4/ISO/AVC
Продолжительность : 3 ч. 0 м.
Битрейт : 3889 Кбит/сек
Ширина : 1280 пикселей
Высота : 536 пикселей
Соотношение сторон : 2,40:1
Режим частоты кадров : Постоянный
Частота кадров : 24,000 кадра/сек
Цветовое пространство : YUV
Субдискретизация насыщенности : 4:2:0
Битовая глубина : 8 бит
Тип развёртки : Прогрессивная
Бит/(Пиксели*Кадры) : 0.236
Размер потока : 4,90 Гбайт (89%)
Язык : English
Default : Да
Forced : Нет
Цветовой диапазон : Limited
Основные цвета : BT.709
Характеристики трансфера : BT.709
Коэффициенты матрицы : BT.709
Аудио
Идентификатор : 2
Формат : AC-3
Формат/Информация : Audio Coding 3
Расширение режима : CM (complete main)
Параметр Endianness формата : Big
Идентификатор кодека : A_AC3
Продолжительность : 3 ч. 0 м.
Вид битрейта : Постоянный
Битрейт : 384 Кбит/сек
Каналы : 6 каналов
Расположение каналов : Front: L C R, Side: L R, LFE
Частота : 48,0 КГц
Метод сжатия : С потерями
Размер потока : 495 Мбайт (9%)
Язык : Russian
Default : Да
Forced : Нет

Скриншоты


[Профиль] [ЛС]
Кто просматривает тему:

Форум Тема Автор Размер
Pop ( Pop)VA - Солнечный музыкальный заряд. Зарубежный выпуск (2015) MP3 BOSS 670 MB
BBC BBC: Horizon. Океаны Солнечной системы / Oceans of the Solar System (David Stewart) [2015 г., Документальный, научно-популярный, HDTVRip 720p] skorpionN 1.5 GB
Apple Mac OS X (ОС и ПО) Solar Walk - 3D модель солнечной системы [2.2.4, Образование, iOS 5.0, RUS] reversefile 204 MB
Зарубежные сериалы В Филадельфии всегда солнечно / It's Always Sunny in Philadelphia (2015) WEB-DLRip (сезон 10, серии 1 из 10) LostFilm (обновляемая) sergej644 311 MB
Фантастика и фэнтези Исуна Хасэкура – Волчица и пряности. Солнечная монета 2 [Том 16] (2016) MP3 Swager 483 MB
Разная литература Мила Солнечная - Домашний сыр, творог, кефир и йогурт (2015) FB2 достали все 434 KB
Отечественные мультфильмы Незнайка в Солнечном городе / 10 серий (П. Мурашов, О. Розовская, Ю. Трофимов, Б. Ардов, Н. Шорина) [1976-1977, мультфильм, DVB] TorrentFilm 4.02 GB
Мультфильмы СССР Незнайка в Солнечном городе [01-10 из 10] (1977) DVDRip от New-Team Белочка 2.18 GB
Показать сообщения:    

Текущее время: Сегодня 11:54

Часовой пояс: GMT



Вы не можете начинать темы
Вы не можете отвечать на сообщения
Вы не можете редактировать свои сообщения
Вы не можете удалять свои сообщения
Вы не можете голосовать в опросах
Вы не можете прикреплять файлы к сообщениям
Вы не можете скачивать файлы