Солнечный удар / Solar Strike / Solar Attack (Пауль Циллер / Paul Ziller) [2006, Канада, боевик, фантастика, DVDRip] MVO

 
Автор Сообщение

TorrentFilm ®

Пол:

Стаж: 2 года

Сообщений: 7741



Награды: Нет

Торрент-статистика

Создавать темы 25-Янв-2015 00:01

[Цитировать]

Солнечный удар / Solar Strike / Solar Attack
Страна: Канада
Жанр: боевик, фантастика
Год выпуска: 2006
Продолжительность: 01:27:39
Перевод: Профессиональный (многоголосый закадровый)
Cубтитры: нет

Режиссер: Пауль Циллер / Paul Ziller
В ролях: Марк Дакаскос, Джоэнн Келли, Кевин Джубинвилл, Сугит Варухесе, Крэйг Элдридж, Тим Пост, Стивен МакХэтти, Конрад Коутс, Луис Госсет мл., Дамир Андрей
Описание: На солнце произошла невероятной силы вспышка. В результате этого космического ЧП от раскаленного светила отделилась верхняя оболочка и с угрожающей скоростью начала двигаться в сторону Земли, угрожая планете глобальной катастрофой. Кто спасет людей от апокалипсиса?
Качество видео: DVDRip
Формат видео: AVI
Видео: 624x480 (1.30:1), 25 fps, XviD build 73 ~1983 kbps avg, 0.27 bit/pixel
Аудио: 48 kHz, AC3 Dolby Digital, 3/2 (L,C,R,l,r) + LFE ch, ~384 kbps

MediaInfo

Общее
Полное имя : H:\Solar.Attack.2006.dvdrip_[1.46]_[teko].avi
Формат : AVI
Формат/Информация : Audio Video Interleave
Размер файла : 1,46 Гбайт
Продолжительность : 1 ч. 27 м.
Общий поток : 2377 Кбит/сек
Программа кодирования : VirtualDubMod 1.5.10.3 | www.virtualdub-fr.org || (build 2550/release)
Библиотека кодирования : VirtualDubMod build 2550/release
Видео
Идентификатор : 0
Формат : MPEG-4 Visual
Профиль формата : Advanced Simple@L5
Параметр BVOP формата : 1
Параметр QPel формата : Нет
Параметр GMC формата : Без точки перехода
Параметр матрицы формата : Выборочная
Идентификатор кодека : XVID
Идентификатор кодека/Подсказка : XviD
Продолжительность : 1 ч. 27 м.
Битрейт : 1984 Кбит/сек
Ширина : 624 пикселя
Высота : 480 пикселей
Соотношение сторон : 4:3
Частота кадров : 25,000 кадров/сек
Цветовое пространство : YUV
Субдискретизация насыщенности : 4:2:0
Битовая глубина : 8 бит
Тип развёртки : Прогрессивная
Метод сжатия : С потерями
Бит/(Пиксели*Кадры) : 0.265
Размер потока : 1,21 Гбайт (83%)
Библиотека кодирования : XviD 73
Аудио
Идентификатор : 1
Формат : AC-3
Формат/Информация : Audio Coding 3
Расширение режима : CM (complete main)
Параметр Endianness формата : Big
Идентификатор кодека : 2000
Продолжительность : 1 ч. 27 м.
Вид битрейта : Постоянный
Битрейт : 384 Кбит/сек
Каналы : 6 каналов
Расположение каналов : Front: L C R, Side: L R, LFE
Частота : 48,0 КГц
Битовая глубина : 16 бит
Метод сжатия : С потерями
Размер потока : 241 Мбайт (16%)
Выравнивание : Разделение по промежуткам
Продолжительность промежутка : 40 мс. (1,00 видеокадр)
Время предзагрузки промежутка : 500 мс.
Релиз группы:
--
[Профиль] [ЛС]

Создавать темы 06-Авг-2015 22:47 (спустя 6 месяцев 12 дней)

Топик был перенесен из форума Фильмы до 2014 года в форум Фильмы до 2012 года
sergej644
 
Кто просматривает тему:

Форум Тема Автор Размер
Pop ( Pop)VA - Солнечный музыкальный заряд. Зарубежный выпуск (2015) MP3 BOSS 670 MB
BBC BBC: Horizon. Океаны Солнечной системы / Oceans of the Solar System (David Stewart) [2015 г., Документальный, научно-популярный, HDTVRip 720p] skorpionN 1.5 GB
Apple Mac OS X (ОС и ПО) Solar Walk - 3D модель солнечной системы [2.2.4, Образование, iOS 5.0, RUS] reversefile 204 MB
Зарубежные сериалы В Филадельфии всегда солнечно / It's Always Sunny in Philadelphia (2015) WEB-DLRip (сезон 10, серии 1 из 10) LostFilm (обновляемая) sergej644 311 MB
Фантастика и фэнтези Исуна Хасэкура – Волчица и пряности. Солнечная монета 2 [Том 16] (2016) MP3 Swager 483 MB
Разная литература Мила Солнечная - Домашний сыр, творог, кефир и йогурт (2015) FB2 достали все 434 KB
Отечественные мультфильмы Незнайка в Солнечном городе / 10 серий (П. Мурашов, О. Розовская, Ю. Трофимов, Б. Ардов, Н. Шорина) [1976-1977, мультфильм, DVB] TorrentFilm 4.02 GB
Мультфильмы СССР Незнайка в Солнечном городе [01-10 из 10] (1977) DVDRip от New-Team Белочка 2.18 GB
Показать сообщения:    

Текущее время: Сегодня 16:33

Часовой пояс: GMT



Вы не можете начинать темы
Вы не можете отвечать на сообщения
Вы не можете редактировать свои сообщения
Вы не можете удалять свои сообщения
Вы не можете голосовать в опросах
Вы не можете прикреплять файлы к сообщениям
Вы не можете скачивать файлы