Солнечный луч (Камара Камалова) [1971, Узбекфильм, кукольная анимация, TeleSynch]

 
Автор Сообщение

TorrentFilm ®

Пол:

Стаж: 2 года

Сообщений: 7741



Награды: Нет

Торрент-статистика

Создавать темы 17-Дек-2014 02:30

[Цитировать]

Солнечный луч
Страна: СССР
Жанр: кукольная анимация
Продолжительность: 00:09:21
Год выпуска: 1971
Режиссёр: Камара Камалова
Описание: Кот сбросил на пол шкатулку с фарфоровой балериной, и она сломала ножку. На плач балерины прибежал храбрый мышонок, и помог балерине склеить ножку и отомстить коту.
Доп. информация: Фильм оцифрован с киноплёнки 16-мм
Качество: TeleSynch
Формат: mpg
Видео: MPEG, 4:3, 720х576, 25 fps, 3637 kbps
Аудио: Layer 2, 48 кHz, 2 ch, 256 kbps

Подробные технические данные

ОбщееПолное имя :Солнечный луч.mpgФормат : MPEG-PSРазмер файла : 244 МбайтПродолжительность : 9 м. 21 с.Режим общего битрейта : ПеременныйОбщий поток : 3637 Кбит/сек
ВидеоИдентификатор : 224 (0xE0)Формат : MPEG VideoВерсия формата : Version 2Профиль формата : Main@MainПараметр BVOP формата : ДаПараметр матрицы формата : По умолчаниюПараметр GOP формата : VariableПродолжительность : 9 м. 21 с.Вид битрейта : ПеременныйБитрейт : 3309 Кбит/секШирина : 720 пикселейВысота : 576 пикселейСоотношение сторон : 5:4Частота кадров : 25,000 кадров/секСтандарт вещания : PALЦветовое пространство : YUVСубдискретизация насыщенности : 4:2:0Битовая глубина : 8 битТип развёртки : ПрогрессивнаяМетод сжатия : С потерямиБит/(Пиксели*Кадры) : 0.319Временной код первого кадра : 00:00:00:00Оригинал временного кода : Group of pictures headerРазмер потока : 222 Мбайт (91%)
АудиоИдентификатор : 192 (0xC0)Формат : MPEG AudioВерсия формата : Version 1Профиль формата : Layer 2Продолжительность : 9 м. 21 с.Вид битрейта : ПостоянныйБитрейт : 256 Кбит/секКаналы : 2 каналаЧастота : 48,0 КГцМетод сжатия : С потерямиРазмер потока : 17,1 Мбайт (7%)

Скриншоты

, , ,
[Профиль] [ЛС]
Кто просматривает тему:

Форум Тема Автор Размер
Pop ( Pop)VA - Солнечный музыкальный заряд. Зарубежный выпуск (2015) MP3 BOSS 670 MB
BBC BBC: Horizon. Океаны Солнечной системы / Oceans of the Solar System (David Stewart) [2015 г., Документальный, научно-популярный, HDTVRip 720p] skorpionN 1.5 GB
Apple Mac OS X (ОС и ПО) Solar Walk - 3D модель солнечной системы [2.2.4, Образование, iOS 5.0, RUS] reversefile 204 MB
Зарубежные сериалы В Филадельфии всегда солнечно / It's Always Sunny in Philadelphia (2015) WEB-DLRip (сезон 10, серии 1 из 10) LostFilm (обновляемая) sergej644 311 MB
Фантастика и фэнтези Исуна Хасэкура – Волчица и пряности. Солнечная монета 2 [Том 16] (2016) MP3 Swager 483 MB
Разная литература Мила Солнечная - Домашний сыр, творог, кефир и йогурт (2015) FB2 достали все 434 KB
Отечественные мультфильмы Незнайка в Солнечном городе / 10 серий (П. Мурашов, О. Розовская, Ю. Трофимов, Б. Ардов, Н. Шорина) [1976-1977, мультфильм, DVB] TorrentFilm 4.02 GB
Мультфильмы СССР Незнайка в Солнечном городе [01-10 из 10] (1977) DVDRip от New-Team Белочка 2.18 GB
Показать сообщения:    

Текущее время: Сегодня 16:57

Часовой пояс: GMT



Вы не можете начинать темы
Вы не можете отвечать на сообщения
Вы не можете редактировать свои сообщения
Вы не можете удалять свои сообщения
Вы не можете голосовать в опросах
Вы не можете прикреплять файлы к сообщениям
Вы не можете скачивать файлы