Солнечная сторона / Solsidan (2017) HDRip 720p | GreenРай Studio

 
Автор Сообщение

BOSS ®

Пол:

Стаж: 4 года

Сообщений: 12092

Откуда: ODESSA



Награды: 22 (Подробнее)

Top Seeder 5 (Количество: 1) Top Seeder 3 (Количество: 1) Mega Releaser 4 (Количество: 1)
Торрент-статистика

Создавать темы 06-Июл-2018 15:28

[Цитировать]

Информация о фильме
Год выхода: 2017
Наименование: Солнечная сторона
Оригинальное наименование: Solsidan
Страна: Швеция
Жанр: драма, комедия
Режиссер постановщик: Феликс Хернгрен, Манс Хернгрен
В главных ролях: Феликс Хернгрен, Миа Шерингер, Йохан Рхеборг, Жозефин Борнебуш, Малин Седерблад, Ребека Инглунд, Хенрик Шайфферт, Фрида Халлгрен, Свен Воллтер
О фильме: Эта полнометражная адаптация одноименного комедийного сериала расскажет о трёх семейных парах, их разводах, любви, детской тоске, странных родителях и неписаных правилах купания в городе Тореков.

Файл
Качество: HDRip 720p
Видео данные: MKV, 1280x720 (16:9), 23.976 fps, 3402 Кбит/с
Аудио данные: AAC, 2 ch, 192 Кбит/с
Перевод: Любительский многоголосый (GreenРай Studio)
Продолжительность: 01:45:22

Медиаинфо

General
Unique ID : 279495511896785721327916604281657049208 (0xD244E0A8525D3F33AB57BBB222214078)
Complete name : D:ГРИНРАЙSolsidan.2017.P.BDRip.720p.mkv
Format : Matroska
Format version : Version 4 / Version 2
File size : 2.65 GiB
Duration : 1 h 45 min
Overall bit rate : 3 594 kb/s
Encoded date : UTC 2018-07-05 09:49:06
Writing application : mkvmerge v21.0.0 ('Tardigrades Will Inherit The Earth') 64-bit
Writing library : libebml v1.3.5 + libmatroska v1.4.8
Video
ID : 1
Format : AVC
Format/Info : Advanced Video Codec
Format profile : High@L3.1
Format settings : CABAC / 1 Ref Frames
Format settings, CABAC : Yes
Format settings, RefFrames : 1 frame
Format settings, GOP : M=1, N=30
Codec ID : V_MPEG4/ISO/AVC
Duration : 1 h 45 min
Bit rate : 3 402 kb/s
Width : 1 280 pixels
Height : 720 pixels
Display aspect ratio : 16:9
Frame rate mode : Constant
Frame rate : 23.976 (24000/1001) FPS
Color space : YUV
Chroma subsampling : 4:2:0
Bit depth : 8 bits
Scan type : Progressive
Bits/(Pixel*Frame) : 0.154
Stream size : 2.50 GiB (95%)
Language : English
Default : Yes
Forced : No
Audio
ID : 2
Format : AAC
Format/Info : Advanced Audio Codec
Format profile : LC
Codec ID : A_AAC-2
Duration : 1 h 45 min
Bit rate : 192 kb/s
Channel(s) : 2 channels
Channel positions : Front: L R
Sampling rate : 48.0 kHz
Frame rate : 46.875 FPS (1024 SPF)
Compression mode : Lossy
Stream size : 143 MiB (5%)
Language : English
Default : Yes
Forced : No
Внимание, имеется видео и аудио реклама от спонсора показа

Скриншоты

Релиз от:
[Профиль] [ЛС]
Кто просматривает тему:

Форум Тема Автор Размер
Pop ( Pop)VA - Солнечный музыкальный заряд. Зарубежный выпуск (2015) MP3 BOSS 670 MB
BBC BBC: Horizon. Закат Солнечной системы / The End of The Solar System [сезон 52 эпизод 5] (George Harris) [2016 г., Документальный, научно-популярный, HDTVRip-AVC 720p] skorpionN 1.93 GB
BBC BBC: Horizon. Океаны Солнечной системы / Oceans of the Solar System (David Stewart) [2015 г., Документальный, научно-популярный, HDTVRip 720p] skorpionN 1.5 GB
BBC BBC: Horizon: Вулканы Солнечной системы / (Космические Вулканы) / Space Volcanoes [сезон 22 серия 2] (Эндрю Томпсон / Andrew Thompson) [2017 г., Документальный, научно-популярный, космос, HDTVRip-AVC... skorpionN 1.8 GB
Apple Mac OS X (ОС и ПО) Solar Walk - 3D модель солнечной системы [2.2.4, Образование, iOS 5.0, RUS] reversefile 204 MB
Зарубежные сериалы В Филадельфии всегда солнечно / It's Always Sunny in Philadelphia (2015) WEB-DLRip (сезон 10, серии 1 из 10) LostFilm (обновляемая) sergej644 311 MB
Фантастика и фэнтези Исуна Хасэкура – Волчица и пряности. Солнечная монета 2 [Том 16] (2016) MP3 Swager 483 MB
Разная литература Мила Солнечная - Домашний сыр, творог, кефир и йогурт (2015) FB2 достали все 434 KB
Показать сообщения:    

Текущее время: Сегодня 00:24

Часовой пояс: GMT



Вы не можете начинать темы
Вы не можете отвечать на сообщения
Вы не можете редактировать свои сообщения
Вы не можете удалять свои сообщения
Вы не можете голосовать в опросах
Вы не можете прикреплять файлы к сообщениям
Вы не можете скачивать файлы