Солнечная буря / Solstorm (Лейф Линдблом / Leif Lindblom) [2007, Швеция, Финляндия, триллер, мистика, DVDRip] Rus Sub

 
Автор Сообщение

painkiller ®

Стаж: 2 года 3 месяца

Сообщений: 582



Награды: Нет

Торрент-статистика

Создавать темы 14-Авг-2014 09:12

[Цитировать]

Солнечная буря / Solstorm- Год выпуска: 2007
Страна: Швеция, Финляндия
Студии: Filmpool Nord, Helsinki Filmi Oy, Sandrew Metronome Distribution
Жанр: триллер, мистика
Продолжительность: 01:36:06-Перевод со шведского: Субтитры (Елена Володина)
Озвучение: нет
Субтитры: русские, шведские
Оригинальная дорожка: шведская-Режиссёр: Лейф Линдблом / Leif Lindblom
Сценарий: Клас Абрахамссон, Джимми Лагнефош
Композитор: Джимми Лагнефош
Оператор: Олоф Йонссон-В ролях: Изабелла Скорупко, Микаэль Персбрандт, Якоб Эклунд, Кристер Хенрикссон, Сюзанна Ройтер, Мария Сундбом, Антти Рейни, Хенрик Густафссон, Андрэ Шёберг, Йёран Фошмак, Анника Ольссон, Сандра Энгстрём, Сага Ларссон-Ребекка Мартинссон (Изабелла Скорупко) живет в Стокгольме и работает адвокатом, но однажды ей звонит старый школьный друг, сообщая печальную весть: в церкви деревни Курраваара был убит ее брат. Ребекка приезжает в родную деревню, чтобы найти преступника...- -Внимание! Если хотите взять фильм на озвучку, пожалуйста, обращайтесь к автору раздачи — за консультацией насчет произношения имен и названий. Если для вас это сложно, то не стоит и браться за озвучку.-Качество: DVDRip
Формат: AVI
Видео-кодек: XviD
Аудио-кодек: AC3
Видео: XviD, 720x320, 25 fps, 1433 kbps, 0.249 bit/pixel
Аудио: AC3, 48 kHz, 6 ch, 448 kbps
Субтитры: русские, шведские (sofsub)

MediaInfo

General
Complete name                  : D:\Translations\Солнечная буря (Solstorm, Sweden) (2007)\Солнечная буря (Solstorm, Sweden) (2007).avi
Format                         : AVI
Format/Info                    : Audio Video Interleave
File size                      : 1.27 GiB
Duration                       : 1h 36mn
Overall bit rate               : 1 888 Kbps
Writing application            : VirtualDubMod 1.5.4.1 (build 2178/release)
Writing library                : VirtualDubMod build 2178/release
Video
ID                             : 0
Format                         : MPEG-4 Visual
Format profile                 : Advanced Simple@L5
Format settings, BVOP          : Yes
Format settings, QPel          : No
Format settings, GMC           : No warppoints
Format settings, Matrix        : Custom
Codec ID                       : XVID
Codec ID/Hint                  : XviD
Duration                       : 1h 36mn
Bit rate                       : 1 433 Kbps
Width                          : 720 pixels
Height                         : 320 pixels
Display aspect ratio           : 2.25:1
Frame rate                     : 25.000 fps
Color space                    : YUV
Chroma subsampling             : 4:2:0
Bit depth                      : 8 bits
Scan type                      : Progressive
Compression mode               : Lossy
Bits/(Pixel*Frame)             : 0.249
Stream size                    : 985 MiB (76%)
Writing library                : XviD 1.1.2 (UTC 2006-11-01)
Audio
ID                             : 1
Format                         : AC-3
Format/Info                    : Audio Coding 3
Mode extension                 : CM (complete main)
Format settings, Endianness    : Big
Codec ID                       : 2000
Duration                       : 1h 36mn
Bit rate mode                  : Constant
Bit rate                       : 448 Kbps
Channel(s)                     : 6 channels
Channel positions              : Front: L C R, Side: L R, LFE
Sampling rate                  : 48.0 KHz
Bit depth                      : 16 bits
Compression mode               : Lossy
Delay relative to video        : 15ms
Stream size                    : 308 MiB (24%)
Alignment                      : Split accross interleaves
Interleave, duration           : 96 ms (2.40 video frames)
Interleave, preload duration   : 96 ms
Language                       : Svenska

Отрывок субтитров

6
00:00:24,880 --> 00:00:31,764
Я побывал там, Ребекка.
Я был в раю.
7
00:01:54,720 --> 00:01:56,882
Лува!
8
00:01:58,040 --> 00:02:01,681
Ну, мам, там нет ничего интересного.
9
00:02:01,760 --> 00:02:03,683
Идём.
10
00:02:32,720 --> 00:02:36,645
— Аллилуйя!
— Аллилуйя!
11
00:02:36,920 --> 00:02:41,084
Люди приносили к Иисусу детей,
чтобы Он прикоснулся к ним.
12
00:02:41,160 --> 00:02:48,521
Но, когда ученики не допустили приносящих,
Иисус вознегодовал и сказал:
13
00:02:48,600 --> 00:02:53,322
«Пустите детей приходить ко мне
и не возбраняйте им!» Аллилуйя!
14
00:02:53,400 --> 00:02:55,289
Аллилуйя!
15
00:02:55,360 --> 00:03:00,366
«Пустите детей приходить ко мне
и не возбраняйте им!» Аллилуйя!
16
00:03:01,440 --> 00:03:06,048
«Ибо таковых есть Царствие Божие».
Аллилуйя!
17
00:03:06,120 --> 00:03:11,524
— Ну, давайте ещё раз! – Аллилуйя!
— Да! да! да! да!
18
00:03:12,080 --> 00:03:15,323
Так да погибнут все враги Твои, Господи!

Скриншот с названием

Скриншоты


[Профиль] [ЛС]

Создавать темы 06-Авг-2015 23:15 (спустя 11 месяцев 23 дня)

Топик был перенесен из форума Фильмы до 2014 года в форум Фильмы до 2012 года
sergej644
 
Кто просматривает тему:

Форум Тема Автор Размер
Pop ( Pop)VA - Солнечный музыкальный заряд. Зарубежный выпуск (2015) MP3 BOSS 670 MB
BBC BBC: Horizon. Океаны Солнечной системы / Oceans of the Solar System (David Stewart) [2015 г., Документальный, научно-популярный, HDTVRip 720p] skorpionN 1.5 GB
Apple Mac OS X (ОС и ПО) Solar Walk - 3D модель солнечной системы [2.2.4, Образование, iOS 5.0, RUS] reversefile 204 MB
Зарубежные сериалы В Филадельфии всегда солнечно / It's Always Sunny in Philadelphia (2015) WEB-DLRip (сезон 10, серии 1 из 10) LostFilm (обновляемая) sergej644 311 MB
Фантастика и фэнтези Исуна Хасэкура – Волчица и пряности. Солнечная монета 2 [Том 16] (2016) MP3 Swager 483 MB
Разная литература Мила Солнечная - Домашний сыр, творог, кефир и йогурт (2015) FB2 достали все 434 KB
Отечественные мультфильмы Незнайка в Солнечном городе / 10 серий (П. Мурашов, О. Розовская, Ю. Трофимов, Б. Ардов, Н. Шорина) [1976-1977, мультфильм, DVB] TorrentFilm 4.02 GB
Мультфильмы СССР Незнайка в Солнечном городе [01-10 из 10] (1977) DVDRip от New-Team Белочка 2.18 GB
Показать сообщения:    

Текущее время: Сегодня 03:22

Часовой пояс: GMT



Вы не можете начинать темы
Вы не можете отвечать на сообщения
Вы не можете редактировать свои сообщения
Вы не можете удалять свои сообщения
Вы не можете голосовать в опросах
Вы не можете прикреплять файлы к сообщениям
Вы не можете скачивать файлы